Featured TV Shows


Safe S01E05

Posted By: Tavaz
720p (HD) / BDRip IMDb
Safe S01E05

Safe S01E05
BDRip | MKV | 1280x536 | French | H264 @ 5746 kbps | DTS @ 1509 kbps | 43 min 6 s | 2.18 GiB
Subtitles: French
Genre: Crime, Drame

Récemment veuf, Tom est à l’aube d’une nouvelle vie avec ses deux filles, au sein d’une communauté privilégiée et protégée. Mais des secrets profondément enfouis vont venir bouleverser tout ce bel équilibre. Disparition mystérieuse, adultères, assassinat … Tom réalise qu’il ne connait pas réellement ceux qui l’entourent. Parviendra-t-il à protéger ses proches contre les dangers qui les guettent ?

safe.s01e05.french.720p.bluray.x264-sh0w.mkv (2.2 GB)
safe.s01e05.french.720p.bluray.x264-sh0w.sample.mkv (39.9 MB)



General
Unique ID : 304855446118104301885548407823700542084 (0xE55905F2FB040A0C6CFE0ED8DA8B4284)
Complete name : ./safe.s01e05.french.720p.bluray.x264-sh0w.mkv
Format : Matroska
Format version : Version 4 / Version 2
File size : 2.18 GiB
Duration : 43 min 6 s
Overall bit rate : 7 254 kb/s
Encoded date : UTC 2018-06-06 23:06:52
Writing application : mkvmerge v23.0.0 ('The Bride Said No') 64-bit
Writing library : libebml v1.3.6 + libmatroska v1.4.9

Video
ID : 1
Format : AVC
Format/Info : Advanced Video Codec
Format profile : High@L4.1
Format settings : CABAC / 5 Ref Frames
Format settings, CABAC : Yes
Format settings, RefFrames : 5 frames
Codec ID : V_MPEG4/ISO/AVC
Duration : 43 min 6 s
Bit rate : 5 746 kb/s
Width : 1 280 pixels
Height : 536 pixels
Display aspect ratio : 2.40:1
Frame rate mode : Constant
Frame rate : 25.000 FPS
Color space : YUV
Chroma subsampling : 4:2:0
Bit depth : 8 bits
Scan type : Progressive
Bits/(Pixel*Frame) : 0.335
Stream size : 1.73 GiB (79%)
Writing library : x264 core 155 r2901 7d0ff22
Encoding settings : cabac=1 / ref=5 / deblock=1:-2:-2 / analyse=0x3:0x133 / me=umh / subme=9 / psy=1 / psy_rd=1.00:0.00 / mixed_ref=1 / me_range=16 / chroma_me=1 / trellis=2 / 8x8dct=1 / cqm=0 / deadzone=21,11 / fast_pskip=0 / chroma_qp_offset=-2 / threads=17 / lookahead_threads=1 / sliced_threads=0 / nr=0 / decimate=1 / interlaced=0 / bluray_compat=0 / constrained_intra=0 / bframes=3 / b_pyramid=2 / b_adapt=1 / b_bias=0 / direct=3 / weightb=1 / open_gop=0 / weightp=2 / keyint=250 / keyint_min=25 / scenecut=40 / intra_refresh=0 / rc_lookahead=50 / rc=2pass / mbtree=1 / bitrate=5746 / ratetol=1.0 / qcomp=0.60 / qpmin=10 / qpmax=69 / qpstep=4 / cplxblur=20.0 / qblur=0.5 / ip_ratio=1.40 / aq=1:1.00
Default : Yes
Forced : No

Audio
ID : 2
Format : DTS
Format/Info : Digital Theater Systems
Mode : 16
Format settings, Endianness : Big
Codec ID : A_DTS
Duration : 42 min 59 s
Bit rate mode : Constant
Bit rate : 1 509 kb/s
Channel(s) : 6 channels
Channel positions : Front: L C R, Side: L R, LFE
Sampling rate : 48.0 kHz
Frame rate : 93.750 FPS (512 SPF)
Bit depth : 24 bits
Compression mode : Lossy
Stream size : 464 MiB (21%)
Title : French
Language : French
Default : Yes
Forced : No

Text #1
ID : 3
Format : UTF-8
Codec ID : S_TEXT/UTF8
Codec ID/Info : UTF-8 Plain Text
Duration : 24 min 40 s
Bit rate : 1 b/s
Count of elements : 9
Stream size : 257 Bytes (0%)
Title : French (Forced)
Language : French
Default : Yes
Forced : Yes

Text #2
ID : 4
Format : UTF-8
Codec ID : S_TEXT/UTF8
Codec ID/Info : UTF-8 Plain Text
Duration : 42 min 27 s
Bit rate : 47 b/s
Count of elements : 531
Stream size : 14.8 KiB (0%)
Title : French
Language : French
Default : No
Forced : No

Menu
00:00:00.000 : fr:Chapter 1
00:02:42.680 : fr:Chapter 2
00:22:30.000 : fr:Chapter 3
00:42:25.800 : fr:Chapter 4





Safe S01E05


Safe S01E05


Safe S01E05


Safe S01E05


Safe S01E05

All episodes