Featured TV Shows


Sneaky Pete S02E03

Posted By: Tavaz
SD / WEBRip IMDb
Sneaky Pete S02E03

Sneaky Pete S02E03
WEBRip | MKV | 720x480 | German | H264 @ 708 kbps | AC-3 @ 384 kbps | 53 min 58 s | 423 MiB
Subtitles: Portuguese, German, English, French, Spanish, Italian
Genre: Crime, Drama

A con man on the run from a vicious gangster takes cover from his past by assuming the identity of his prison cellmate, Pete, “reuniting” with Pete’s estranged family, a colorful, dysfunctional group that threatens to drag him into a world just as dangerous as the one he’s trying to escape - and, just maybe, give him a taste of the loving family he’s never had.

Sneaky.Pete.S02E03.German.mkv (375.8 MB)
Sneaky.Pete.S02E01.German.mkv (422.9 MB)
Sneaky.Pete.S02E02.German.mkv (340.5 MB)



General
Unique ID : 228525385491553386604941850243986275054 (0xABEC63677003E9EB85B30135269ABAEE)
Complete name : ./SnPe S02E01 - S02E02 - S02E03 German/Sneaky.Pete.S02E01.German.mkv
Format : Matroska
Format version : Version 4 / Version 2
File size : 423 MiB
Duration : 53 min 58 s
Overall bit rate mode : Variable
Overall bit rate : 1 096 kb/s
Encoded date : UTC 2018-03-09 07:14:45
Writing application : mkvmerge v8.3.0 ('Over the Horizon') 64bit
Writing library : libebml v1.3.1 + libmatroska v1.4.2

Video
ID : 1
Format : AVC
Format/Info : Advanced Video Codec
Format profile : High@L3
Format settings : CABAC / 5 Ref Frames
Format settings, CABAC : Yes
Format settings, RefFrames : 5 frames
Codec ID : V_MPEG4/ISO/AVC
Duration : 53 min 58 s
Bit rate mode : Variable
Bit rate : 709 kb/s
Maximum bit rate : 2 400 kb/s
Width : 720 pixels
Height : 480 pixels
Display aspect ratio : 16:9
Frame rate mode : Constant
Frame rate : 23.976 (24000/1001) FPS
Color space : YUV
Chroma subsampling : 4:2:0
Bit depth : 8 bits
Scan type : Progressive
Bits/(Pixel*Frame) : 0.086
Stream size : 274 MiB (65%)
Language : English
Default : Yes
Forced : No
Color range : Limited
Color primaries : BT.709
Transfer characteristics : BT.709
Matrix coefficients : BT.709

Audio
ID : 2
Format : AC-3
Format/Info : Audio Coding 3
Format settings, Endianness : Big
Codec ID : A_AC3
Duration : 53 min 58 s
Bit rate mode : Constant
Bit rate : 384 kb/s
Channel(s) : 6 channels
Channel positions : Front: L C R, Side: L R, LFE
Sampling rate : 48.0 kHz
Frame rate : 31.250 FPS (1536 SPF)
Bit depth : 16 bits
Compression mode : Lossy
Stream size : 148 MiB (35%)
Language : German
Service kind : Complete Main
Default : Yes
Forced : No

Text #1
ID : 3
Format : UTF-8
Codec ID : S_TEXT/UTF8
Codec ID/Info : UTF-8 Plain Text
Duration : 53 min 34 s
Bit rate : 72 b/s
Count of elements : 937
Stream size : 28.6 KiB (0%)
Title : English
Language : English
Default : No
Forced : No

Text #2
ID : 4
Format : UTF-8
Codec ID : S_TEXT/UTF8
Codec ID/Info : UTF-8 Plain Text
Duration : 53 min 41 s
Bit rate : 86 b/s
Count of elements : 1202
Stream size : 34.2 KiB (0%)
Title : English (SDH)
Language : English
Default : No
Forced : No

Text #3
ID : 5
Format : UTF-8
Codec ID : S_TEXT/UTF8
Codec ID/Info : UTF-8 Plain Text
Duration : 52 min 22 s
Bit rate : 68 b/s
Count of elements : 869
Stream size : 26.2 KiB (0%)
Title : French
Language : French
Default : No
Forced : No

Text #4
ID : 6
Format : UTF-8
Codec ID : S_TEXT/UTF8
Codec ID/Info : UTF-8 Plain Text
Duration : 52 min 23 s
Bit rate : 63 b/s
Count of elements : 628
Stream size : 24.4 KiB (0%)
Title : German
Language : German
Default : No
Forced : No

Text #5
ID : 7
Format : UTF-8
Codec ID : S_TEXT/UTF8
Codec ID/Info : UTF-8 Plain Text
Duration : 52 min 22 s
Bit rate : 70 b/s
Count of elements : 873
Stream size : 27.1 KiB (0%)
Title : Italian
Language : Italian
Default : No
Forced : No

Text #6
ID : 8
Format : UTF-8
Codec ID : S_TEXT/UTF8
Codec ID/Info : UTF-8 Plain Text
Duration : 52 min 22 s
Bit rate : 72 b/s
Count of elements : 866
Stream size : 27.7 KiB (0%)
Title : Portuguese
Language : Portuguese
Default : No
Forced : No

Text #7
ID : 9
Format : UTF-8
Codec ID : S_TEXT/UTF8
Codec ID/Info : UTF-8 Plain Text
Duration : 52 min 22 s
Bit rate : 75 b/s
Count of elements : 874
Stream size : 29.0 KiB (0%)
Title : Spanish
Language : Spanish
Default : No
Forced : No

Text #8
ID : 10
Format : UTF-8
Codec ID : S_TEXT/UTF8
Codec ID/Info : UTF-8 Plain Text
Duration : 52 min 22 s
Bit rate : 74 b/s
Count of elements : 868
Stream size : 28.4 KiB (0%)
Title : Spanish (Latin American)
Language : Spanish
Default : No
Forced : No

Menu
00:00:00.000 : en:Amazon Original
00:00:05.000 : en:Previously On
00:02:27.000 : en:Two thugs are looking for Pete's mother
00:06:17.000 : en:Chayton gives Julia one week for the money
00:08:20.000 : en:Shannon has a matter to discuss with Taylor
00:10:11.000 : en:Julia returns home
00:11:14.000 : en:Marjorie has an update for Marius
00:12:31.000 : en:Opening Credits
00:13:07.000 : en:Marius confronts Gavin
00:14:26.000 : en:Audrey agrees to hold off on confessing
00:16:16.000 : en:Julia loses the bag of money
00:17:47.000 : en:Marius makes Gavin and Gina an offer
00:19:02.000 : en:Julia looks for the backpack
00:21:39.000 : en:Otto discusses recent events with Sam
00:22:58.000 : en:Audrey goes to confession
00:23:32.000 : en:Carly is accused of shoplifting
00:24:14.000 : en:Marius asks an old prison buddy for a favor
00:25:34.000 : en:Julia meets to swap backpacks
00:26:29.000 : en:Marius gets a new lead
00:28:25.000 : en:Julia is charged a finders fee
00:29:18.000 : en:Gavin and Gina run a scam
00:30:26.000 : en:Marius attempts to recover Julia's money
00:33:02.000 : en:Carly discovers the cop's identity
00:34:47.000 : en:Audrey still feels guilty
00:37:07.000 : en:The car from the incident is recovered
00:38:34.000 : en:Marius reaches out to the real Pete
00:50:39.000 : en:"Going to prison"
00:52:36.000 : en:End Credits





Sneaky Pete S02E03


Sneaky Pete S02E03


Sneaky Pete S02E03


Sneaky Pete S02E03


Sneaky Pete S02E03

All episodes