Featured TV Shows


Speechless S02E11

Posted By: Tavaz
1080p (FullHD) / WEBRip IMDb
Speechless S02E11

Speechless S02E11
WEBRip | MKV | 1920x1080 | English | H264 @ 12694 kbps | E-AC-3 @ 640 kbps | 21 min 38 s | 2.02 GiB
Subtitles: English
Genre: Comedy

Maya DiMeo is a mom on a mission who will do anything for her husband, Jimmy, and kids Ray, Dylan, and JJ, her eldest son with special needs. As Maya fights injustices both real and imagined, the family works to make a new home for themselves and searches for just the right person to give JJ his “voice.”

Speechless.S02E11.1080p.Amazon.WEB-DL.DD+.5.1.x264-TrollHD.mkv (2.0 GB)



General
Unique ID : 807863680007157885571243076595889015 (0x9B96C12EB7A9FBB0A4E573D0BA3377)
Complete name : ./Speechless.S02E11.1080p.Amazon.WEB-DL.DD+.5.1.x264-TrollHD.mkv
Format : Matroska
Format version : Version 4 / Version 2
File size : 2.02 GiB
Duration : 21 min 38 s
Overall bit rate mode : Variable
Overall bit rate : 13.3 Mb/s
Encoded date : UTC 2018-01-05 17:54:52
Writing application : mkvmerge v19.0.0 ('Brave Captain') 64-bit
Writing library : libebml v1.3.5 + libmatroska v1.4.8

Video
ID : 1
Format : AVC
Format/Info : Advanced Video Codec
Format profile : High@L4
Format settings : CABAC / 4 Ref Frames
Format settings, CABAC : Yes
Format settings, RefFrames : 4 frames
Codec ID : V_MPEG4/ISO/AVC
Duration : 21 min 38 s
Bit rate mode : Variable
Bit rate : 12.7 Mb/s
Maximum bit rate : 15.0 Mb/s
Width : 1 920 pixels
Height : 1 080 pixels
Display aspect ratio : 16:9
Frame rate mode : Constant
Frame rate : 23.976 (24000/1001) FPS
Color space : YUV
Chroma subsampling : 4:2:0
Bit depth : 8 bits
Scan type : Progressive
Bits/(Pixel*Frame) : 0.255
Stream size : 1.92 GiB (95%)
Default : Yes
Forced : No
Color range : Limited
Color primaries : BT.709
Transfer characteristics : BT.709
Matrix coefficients : BT.709

Audio
ID : 2
Format : E-AC-3
Format/Info : Enhanced Audio Coding 3
Format settings, Endianness : Big
Codec ID : A_EAC3
Duration : 21 min 38 s
Bit rate mode : Constant
Bit rate : 640 kb/s
Channel(s) : 6 channels
Channel positions : Front: L C R, Side: L R, LFE
Sampling rate : 48.0 kHz
Frame rate : 187.500 FPS (256 SPF)
Compression mode : Lossy
Stream size : 99.1 MiB (5%)
Language : English
Service kind : Complete Main
Default : Yes
Forced : No

Text #1
ID : 3
Format : UTF-8
Codec ID : S_TEXT/UTF8
Codec ID/Info : UTF-8 Plain Text
Duration : 21 min 30 s
Bit rate : 103 b/s
Count of elements : 507
Stream size : 16.3 KiB (0%)
Language : English
Default : No
Forced : No

Text #2
ID : 4
Format : UTF-8
Codec ID : S_TEXT/UTF8
Codec ID/Info : UTF-8 Plain Text
Duration : 21 min 30 s
Bit rate : 109 b/s
Count of elements : 533
Stream size : 17.2 KiB (0%)
Title : SDH
Language : English
Default : No
Forced : No





Speechless S02E11


Speechless S02E11


Speechless S02E11


Speechless S02E11


Speechless S02E11

All episodes