Featured TV Shows


Speechless S03E06

Posted By: Tavaz
SD / WEBRip IMDb
Speechless S03E06

Speechless S03E06
WEBRip | MOV | 720x400 | nul | H264 @ 1100 kbps | AAC @ 256 kbps | 21 min 33 s | 208 MiB
Genre: Comedy

Maya DiMeo is a mom on a mission who will do anything for her husband, Jimmy, and kids Ray, Dylan, and JJ, her eldest son with special needs. As Maya fights injustices both real and imagined, the family works to make a new home for themselves and searches for just the right person to give JJ his “voice.”

Speechless.S03E06.WEBRip.x264-ION10.mp4 (208.5 MB)



General
Complete name : ./Speechless.S03E06.WEBRip.x264-ION10.mp4
Format : MPEG-4
Format profile : Base Media
Codec ID : isom (isom/iso2/avc1/mp41)
File size : 208 MiB
Duration : 21 min 33 s
Overall bit rate : 1 352 kb/s
Movie name : RARBG - Speechless.S03E06.WEBRip.x264-ION10
Encoded date : UTC 2018-11-17 08:09:23
Tagged date : UTC 2018-11-17 08:09:23
Writing application : Lavf58.12.100
Comment : RARBG - Speechless.S03E06.WEBRip.x264-ION10

Video
ID : 1
Format : AVC
Format/Info : Advanced Video Codec
Format profile : High@L3.1
Format settings : CABAC / 5 Ref Frames
Format settings, CABAC : Yes
Format settings, RefFrames : 5 frames
Codec ID : avc1
Codec ID/Info : Advanced Video Coding
Duration : 21 min 33 s
Bit rate : 1 100 kb/s
Width : 720 pixels
Height : 400 pixels
Display aspect ratio : 16:9
Frame rate mode : Constant
Frame rate : 23.976 (24000/1001) FPS
Color space : YUV
Chroma subsampling : 4:2:0
Bit depth : 8 bits
Scan type : Progressive
Bits/(Pixel*Frame) : 0.159
Stream size : 168 MiB (81%)
Title : RARBG - Speechless.S03E06.WEBRip.x264-ION10
Writing library : x264 core 152 r2851M ba24899
Encoding settings : cabac=1 / ref=5 / deblock=1:-1:-1 / analyse=0x3:0x113 / me=umh / subme=9 / psy=1 / psy_rd=1.00:0.15 / mixed_ref=1 / me_range=16 / chroma_me=1 / trellis=2 / 8x8dct=1 / cqm=0 / deadzone=21,11 / fast_pskip=1 / chroma_qp_offset=-3 / threads=12 / lookahead_threads=1 / sliced_threads=0 / nr=0 / decimate=1 / interlaced=0 / bluray_compat=0 / constrained_intra=0 / bframes=3 / b_pyramid=2 / b_adapt=2 / b_bias=0 / direct=3 / weightb=1 / open_gop=0 / weightp=2 / keyint=250 / keyint_min=23 / scenecut=40 / intra_refresh=0 / rc_lookahead=50 / rc=abr / mbtree=1 / bitrate=1100 / ratetol=1.0 / qcomp=0.60 / qpmin=0 / qpmax=69 / qpstep=4 / ip_ratio=1.40 / aq=1:1.00
Encoded date : UTC 2018-11-17 08:09:23
Tagged date : UTC 2018-11-17 08:09:23

Audio
ID : 2
Format : AAC
Format/Info : Advanced Audio Codec
Format profile : LC
Codec ID : mp4a-40-2
Duration : 21 min 33 s
Bit rate mode : Constant
Bit rate : 256 kb/s
Channel(s) : 2 channels
Channel positions : Front: L R
Sampling rate : 48.0 kHz
Frame rate : 46.875 FPS (1024 SPF)
Compression mode : Lossy
Stream size : 39.5 MiB (19%)
Title : RARBG - Speechless.S03E06.WEBRip.x264-ION10
Language : nul
Default : Yes
Alternate group : 1
Encoded date : UTC 2018-11-17 08:09:23
Tagged date : UTC 2018-11-17 08:09:23





Speechless S03E06


Speechless S03E06


Speechless S03E06


Speechless S03E06


Speechless S03E06

All episodes