Featured TV Shows


Speechless S03E06

Posted By: Tavaz
720p (HD) / WEBRip IMDb
Speechless S03E06

Speechless S03E06
WEBRip | MKV | 1280x720 | null | H264 @ 2396 kbps | E-AC-3 @ 640 kbps | 21 min 33 s | 478 MiB
Subtitles: English
Genre: Comedy

Maya DiMeo is a mom on a mission who will do anything for her husband, Jimmy, and kids Ray, Dylan, and JJ, her eldest son with special needs. As Maya fights injustices both real and imagined, the family works to make a new home for themselves and searches for just the right person to give JJ his “voice.”

13610602141e4da8b25470df0c94a601.mkv (477.9 MB)



General
Unique ID : 135830552065272154317856117401704283647 (0x66300344245FBD2B3207A8A3D9B13DFF)
Complete name : ./13610602141e4da8b25470df0c94a601.mkv
Format : Matroska
Format version : Version 4 / Version 2
File size : 478 MiB
Duration : 21 min 33 s
Overall bit rate : 3 099 kb/s
Movie name : Speechless S03E06
Writing application : Lavf57.72.101
Writing library : Lavf57.72.101
ErrorDetectionType : Per level 1

Video
ID : 1
Format : AVC
Format/Info : Advanced Video Codec
Format profile : High@L3.1
Format settings : CABAC / 5 Ref Frames
Format settings, CABAC : Yes
Format settings, RefFrames : 5 frames
Codec ID : V_MPEG4/ISO/AVC
Duration : 21 min 33 s
Bit rate : 2 397 kb/s
Width : 1 280 pixels
Height : 720 pixels
Display aspect ratio : 16:9
Frame rate mode : Constant
Frame rate : 23.976 (24000/1001) FPS
Color space : YUV
Chroma subsampling : 4:2:0
Bit depth : 8 bits
Scan type : Progressive
Bits/(Pixel*Frame) : 0.108
Stream size : 370 MiB (77%)
Default : Yes
Forced : No
Color range : Limited
Color primaries : BT.709
Transfer characteristics : BT.709
Matrix coefficients : BT.709

Audio
ID : 2
Format : E-AC-3
Format/Info : Enhanced Audio Coding 3
Format settings, Endianness : Big
Codec ID : A_EAC3
Duration : 21 min 33 s
Bit rate mode : Constant
Bit rate : 640 kb/s
Channel(s) : 6 channels
Channel positions : Front: L C R, Side: L R, LFE
Sampling rate : 48.0 kHz
Frame rate : 187.500 FPS (256 SPF)
Bit depth : 32 bits
Compression mode : Lossy
Stream size : 98.7 MiB (21%)
Title : English
Language : null
Service kind : Complete Main
Default : Yes
Forced : No

Text
ID : 3
Format : UTF-8
Codec ID : S_TEXT/UTF8
Codec ID/Info : UTF-8 Plain Text
Title : English [CC]
Language : English
Default : No
Forced : No





Speechless S03E06


Speechless S03E06


Speechless S03E06


Speechless S03E06


Speechless S03E06

All episodes