Featured TV Shows


Speechless S03E14

Posted By: Tavaz
1080p (FullHD) / WEBRip IMDb
Speechless S03E14

Speechless S03E14
WEBRip | MKV | 1920x1080 | English | H264 @ 10000 kbps | E-AC-3 @ 640 kbps | 22 min 30 s | 1.55 GiB
Subtitles: English
Genre: Comedy

Maya DiMeo is a mom on a mission who will do anything for her husband, Jimmy, and kids Ray, Dylan, and JJ, her eldest son with special needs. As Maya fights injustices both real and imagined, the family works to make a new home for themselves and searches for just the right person to give JJ his “voice.”

d806a0f294f041aebe7e24f12d520d5d.mkv (1.5 GB)



General
Unique ID : 141229474965207349708124029754806087355 (0x6A3FCEB77066B3D09A6C7D3B4C7BAEBB)
Complete name : ./d806a0f294f041aebe7e24f12d520d5d.mkv
Format : Matroska
Format version : Version 4 / Version 2
File size : 1.55 GiB
Duration : 22 min 30 s
Overall bit rate : 9 827 kb/s
Encoded date : UTC 2019-02-16 08:06:48
Writing application : mkvmerge v30.1.0 ('Forever And More') 64-bit
Writing library : libebml v1.3.6 + libmatroska v1.4.9

Video
ID : 1
Format : AVC
Format/Info : Advanced Video Codec
Format profile : High@L4
Format settings : CABAC / 4 Ref Frames
Format settings, CABAC : Yes
Format settings, RefFrames : 4 frames
Codec ID : V_MPEG4/ISO/AVC
Duration : 21 min 33 s
Bit rate mode : Constant
Bit rate : 10 000 kb/s
Width : 1 920 pixels
Height : 1 080 pixels
Display aspect ratio : 16:9
Frame rate mode : Constant
Frame rate : 23.976 (24000/1001) FPS
Color space : YUV
Chroma subsampling : 4:2:0
Bit depth : 8 bits
Scan type : Progressive
Bits/(Pixel*Frame) : 0.201
Stream size : 1.45 GiB (94%)
Language : English
Default : Yes
Forced : No
Color range : Limited
Color primaries : BT.709
Transfer characteristics : BT.709
Matrix coefficients : BT.709

Audio
ID : 2
Format : E-AC-3
Format/Info : Enhanced Audio Coding 3
Format settings, Endianness : Big
Codec ID : A_EAC3
Duration : 21 min 33 s
Bit rate mode : Constant
Bit rate : 640 kb/s
Channel(s) : 6 channels
Channel positions : Front: L C R, Side: L R, LFE
Sampling rate : 48.0 kHz
Frame rate : 187.500 FPS (256 SPF)
Compression mode : Lossy
Stream size : 98.7 MiB (6%)
Language : English
Service kind : Complete Main
Default : Yes
Forced : No

Text
ID : 3
Format : UTF-8
Codec ID : S_TEXT/UTF8
Codec ID/Info : UTF-8 Plain Text
Duration : 22 min 27 s
Bit rate : 102 b/s
Count of elements : 558
Stream size : 16.9 KiB (0%)
Title : English
Language : English
Default : No
Forced : No





Speechless S03E14


Speechless S03E14


Speechless S03E14


Speechless S03E14


Speechless S03E14

All episodes