Featured TV Shows


The Bad Batch S01E07

Posted By: Tavaz
1080p (FullHD) / WEBRip IMDb
The Bad Batch S01E07

The Bad Batch S01E07
WEBRip | MKV | 1920x1080 | Nederlands | H264 @ 6942 kbps | E-AC-3 @ 256 kbps | 25 min 0 s | 1.26 GiB
Subtitles: Français, Deutsch, Suomi, Español, Polski, Italiano, Nederlands, Svenska, Dansk, English, Português
Genre: Animation


Follow the elite and experimental Clones of the Bad Batch as they find their way in a rapidly changing galaxy in the aftermath of the Clone Wars.

530f5f0a8e9d1a5f6761c66fbc78718b.mkv (1.3 GB)



General
Unique ID : 222987722425558114830958282396758241194 (0xA7C1DF890D81AAE2F068BE81ACC0EFAA)
Complete name : ./530f5f0a8e9d1a5f6761c66fbc78718b.mkv
Format : Matroska
Format version : Version 4 / Version 2
File size : 1.26 GiB
Duration : 25 min 0 s
Overall bit rate mode : Variable
Overall bit rate : 7 202 kb/s
Writing application : mkvmerge v55.0.0 ('Waiting For Space') 64-bit
Writing library : libebml v1.4.2 + libmatroska v1.6.4

Video
ID : 1
Format : AVC
Format/Info : Advanced Video Codec
Format profile : High@L4
Format settings : CABAC / 4 Ref Frames
Format settings, CABAC : Yes
Format settings, RefFrames : 4 frames
Codec ID : V_MPEG4/ISO/AVC
Duration : 25 min 0 s
Bit rate mode : Variable
Bit rate : 6 943 kb/s
Maximum bit rate : 12.7 Mb/s
Width : 1 920 pixels
Height : 1 080 pixels
Display aspect ratio : 16:9
Frame rate mode : Constant
Frame rate : 23.976 (24000/1001) FPS
Color space : YUV
Chroma subsampling : 4:2:0
Bit depth : 8 bits
Scan type : Progressive
Bits/(Pixel*Frame) : 0.140
Stream size : 1.21 GiB (96%)
Language : Dutch
Default : Yes
Forced : No
Color range : Limited
Color primaries : BT.709
Transfer characteristics : BT.709
Matrix coefficients : BT.709

Audio
ID : 2
Format : E-AC-3
Format/Info : Enhanced Audio Coding 3
Format settings, Endianness : Big
Codec ID : A_EAC3
Duration : 25 min 0 s
Bit rate mode : Constant
Bit rate : 256 kb/s
Channel(s) : 6 channels
Channel positions : Front: L C R, Side: L R, LFE
Sampling rate : 48.0 kHz
Frame rate : 187.500 FPS (256 SPF)
Compression mode : Lossy
Stream size : 45.8 MiB (4%)
Language : Dutch
Service kind : Complete Main
Default : Yes
Forced : No

Text #1
ID : 3
Format : UTF-8
Codec ID : S_TEXT/UTF8
Codec ID/Info : UTF-8 Plain Text
Duration : 24 min 14 s
Bit rate : 41 b/s
Count of elements : 229
Stream size : 7.41 KiB (0%)
Title : Nederlands
Language : Dutch
Default : No
Forced : No

Text #2
ID : 4
Format : UTF-8
Codec ID : S_TEXT/UTF8
Codec ID/Info : UTF-8 Plain Text
Duration : 24 min 29 s
Bit rate : 47 b/s
Count of elements : 267
Stream size : 8.43 KiB (0%)
Title : Dansk
Language : Danish
Default : No
Forced : No

Text #3
ID : 5
Format : UTF-8
Codec ID : S_TEXT/UTF8
Codec ID/Info : UTF-8 Plain Text
Duration : 24 min 14 s
Bit rate : 46 b/s
Count of elements : 264
Stream size : 8.25 KiB (0%)
Title : Deutsch
Language : German
Default : No
Forced : No

Text #4
ID : 6
Format : UTF-8
Codec ID : S_TEXT/UTF8
Codec ID/Info : UTF-8 Plain Text
Duration : 24 min 29 s
Bit rate : 47 b/s
Count of elements : 254
Stream size : 8.49 KiB (0%)
Title : Español
Language : Spanish
Default : No
Forced : No

Text #5
ID : 7
Format : UTF-8
Codec ID : S_TEXT/UTF8
Codec ID/Info : UTF-8 Plain Text
Duration : 24 min 14 s
Bit rate : 45 b/s
Count of elements : 261
Stream size : 8.10 KiB (0%)
Title : Español (Latinoamericano)
Language : Spanish
Default : No
Forced : No

Text #6
ID : 8
Format : UTF-8
Codec ID : S_TEXT/UTF8
Codec ID/Info : UTF-8 Plain Text
Duration : 24 min 14 s
Bit rate : 44 b/s
Count of elements : 262
Stream size : 7.82 KiB (0%)
Title : Suomi
Language : Finnish
Default : No
Forced : No

Text #7
ID : 9
Format : UTF-8
Codec ID : S_TEXT/UTF8
Codec ID/Info : UTF-8 Plain Text
Duration : 24 min 14 s
Bit rate : 47 b/s
Count of elements : 266
Stream size : 8.39 KiB (0%)
Title : Français
Language : French
Default : No
Forced : No

Text #8
ID : 10
Format : UTF-8
Codec ID : S_TEXT/UTF8
Codec ID/Info : UTF-8 Plain Text
Duration : 24 min 14 s
Bit rate : 47 b/s
Count of elements : 259
Stream size : 8.42 KiB (0%)
Title : Italiano
Language : Italian
Default : No
Forced : No

Text #9
ID : 11
Format : UTF-8
Codec ID : S_TEXT/UTF8
Codec ID/Info : UTF-8 Plain Text
Duration : 24 min 29 s
Bit rate : 47 b/s
Count of elements : 268
Stream size : 8.43 KiB (0%)
Title : Norsk
Language : Norwegian
Default : No
Forced : No

Text #10
ID : 12
Format : UTF-8
Codec ID : S_TEXT/UTF8
Codec ID/Info : UTF-8 Plain Text
Duration : 24 min 39 s
Bit rate : 45 b/s
Count of elements : 267
Stream size : 8.16 KiB (0%)
Title : Polski
Language : Polish
Default : No
Forced : No

Text #11
ID : 13
Format : UTF-8
Codec ID : S_TEXT/UTF8
Codec ID/Info : UTF-8 Plain Text
Duration : 24 min 29 s
Bit rate : 48 b/s
Count of elements : 266
Stream size : 8.64 KiB (0%)
Title : Português
Language : Portuguese
Default : No
Forced : No

Text #12
ID : 14
Format : UTF-8
Codec ID : S_TEXT/UTF8
Codec ID/Info : UTF-8 Plain Text
Duration : 24 min 14 s
Bit rate : 46 b/s
Count of elements : 261
Stream size : 8.21 KiB (0%)
Title : Português (Brasil)
Language : Portuguese
Default : No
Forced : No

Text #13
ID : 15
Format : UTF-8
Codec ID : S_TEXT/UTF8
Codec ID/Info : UTF-8 Plain Text
Duration : 24 min 28 s
Bit rate : 46 b/s
Count of elements : 268
Stream size : 8.29 KiB (0%)
Title : Svenska
Language : Swedish
Default : No
Forced : No

Text #14
ID : 16
Format : UTF-8
Codec ID : S_TEXT/UTF8
Codec ID/Info : UTF-8 Plain Text
Duration : 23 min 38 s
Bit rate : 62 b/s
Count of elements : 366
Stream size : 10.8 KiB (0%)
Title : English (SDH)
Language : English
Default : No
Forced : No





The Bad Batch S01E07


The Bad Batch S01E07


The Bad Batch S01E07


The Bad Batch S01E07


The Bad Batch S01E07

All episodes