Index
# A B C D E F G H I J K L M N O P Q R S T U V W Y Z
Tags
Language
Tags

Featured TV Shows


The Bad Batch S01E09

Posted By: Tavaz
1080p (FullHD) / WEBRip IMDb
The Bad Batch S01E09

The Bad Batch S01E09
WEBRip | MKV | 1920x1080 | Nederlands | H264 @ 6245 kbps | E-AC-3 @ 256 kbps | 24 min 40 s | 1.12 GiB
Subtitles: Français, Deutsch, Suomi, Español, Polski, Italiano, Nederlands, Svenska, Dansk, English, Português
Genre: Animatie


Volg de elite en experimentele Clones of the Bad Batch terwijl ze hun weg vinden in een snel veranderend sterrenstelsel in de nasleep van de Clone Wars.

9de7ecee94f014512179d56c1b844d81.mkv (1.1 GB)



General
Unique ID : 96547884896162164329458072407136032351 (0x48A2723E0592A0BA113EC2E104C4565F)
Complete name : ./9de7ecee94f014512179d56c1b844d81.mkv
Format : Matroska
Format version : Version 4 / Version 2
File size : 1.12 GiB
Duration : 24 min 40 s
Overall bit rate mode : Variable
Overall bit rate : 6 505 kb/s
Writing application : mkvmerge v55.0.0 ('Waiting For Space') 64-bit
Writing library : libebml v1.4.2 + libmatroska v1.6.4

Video
ID : 1
Format : AVC
Format/Info : Advanced Video Codec
Format profile : High@L4
Format settings : CABAC / 4 Ref Frames
Format settings, CABAC : Yes
Format settings, RefFrames : 4 frames
Codec ID : V_MPEG4/ISO/AVC
Duration : 24 min 40 s
Bit rate mode : Variable
Bit rate : 6 246 kb/s
Maximum bit rate : 12.7 Mb/s
Width : 1 920 pixels
Height : 1 080 pixels
Display aspect ratio : 16:9
Frame rate mode : Constant
Frame rate : 23.976 (24000/1001) FPS
Color space : YUV
Chroma subsampling : 4:2:0
Bit depth : 8 bits
Scan type : Progressive
Bits/(Pixel*Frame) : 0.126
Stream size : 1.08 GiB (96%)
Language : Dutch
Default : Yes
Forced : No
Color range : Limited
Color primaries : BT.709
Transfer characteristics : BT.709
Matrix coefficients : BT.709

Audio
ID : 2
Format : E-AC-3
Format/Info : Enhanced Audio Coding 3
Format settings, Endianness : Big
Codec ID : A_EAC3
Duration : 24 min 40 s
Bit rate mode : Constant
Bit rate : 256 kb/s
Channel(s) : 6 channels
Channel positions : Front: L C R, Side: L R, LFE
Sampling rate : 48.0 kHz
Frame rate : 187.500 FPS (256 SPF)
Compression mode : Lossy
Stream size : 45.2 MiB (4%)
Language : Dutch
Service kind : Complete Main
Default : Yes
Forced : No

Text #1
ID : 3
Format : UTF-8
Codec ID : S_TEXT/UTF8
Codec ID/Info : UTF-8 Plain Text
Duration : 24 min 4 s
Bit rate : 41 b/s
Count of elements : 222
Stream size : 7.40 KiB (0%)
Title : Nederlands
Language : Dutch
Default : No
Forced : No

Text #2
ID : 4
Format : UTF-8
Codec ID : S_TEXT/UTF8
Codec ID/Info : UTF-8 Plain Text
Duration : 24 min 7 s
Bit rate : 45 b/s
Count of elements : 254
Stream size : 8.03 KiB (0%)
Title : Dansk
Language : Danish
Default : No
Forced : No

Text #3
ID : 5
Format : UTF-8
Codec ID : S_TEXT/UTF8
Codec ID/Info : UTF-8 Plain Text
Duration : 24 min 3 s
Bit rate : 44 b/s
Count of elements : 247
Stream size : 7.76 KiB (0%)
Title : Deutsch
Language : German
Default : No
Forced : No

Text #4
ID : 6
Format : UTF-8
Codec ID : S_TEXT/UTF8
Codec ID/Info : UTF-8 Plain Text
Duration : 23 min 53 s
Bit rate : 42 b/s
Count of elements : 246
Stream size : 7.42 KiB (0%)
Title : Español (Latinoamericano)
Language : Spanish
Default : No
Forced : No

Text #5
ID : 7
Format : UTF-8
Codec ID : S_TEXT/UTF8
Codec ID/Info : UTF-8 Plain Text
Duration : 24 min 7 s
Bit rate : 45 b/s
Count of elements : 245
Stream size : 8.02 KiB (0%)
Title : Español
Language : Spanish
Default : No
Forced : No

Text #6
ID : 8
Format : UTF-8
Codec ID : S_TEXT/UTF8
Codec ID/Info : UTF-8 Plain Text
Duration : 24 min 3 s
Bit rate : 41 b/s
Count of elements : 249
Stream size : 7.27 KiB (0%)
Title : Suomi
Language : Finnish
Default : No
Forced : No

Text #7
ID : 9
Format : UTF-8
Codec ID : S_TEXT/UTF8
Codec ID/Info : UTF-8 Plain Text
Duration : 23 min 53 s
Bit rate : 44 b/s
Count of elements : 250
Stream size : 7.77 KiB (0%)
Title : Français
Language : French
Default : No
Forced : No

Text #8
ID : 10
Format : UTF-8
Codec ID : S_TEXT/UTF8
Codec ID/Info : UTF-8 Plain Text
Duration : 24 min 4 s
Bit rate : 42 b/s
Count of elements : 247
Stream size : 7.52 KiB (0%)
Title : Italiano
Language : Italian
Default : No
Forced : No

Text #9
ID : 11
Format : UTF-8
Codec ID : S_TEXT/UTF8
Codec ID/Info : UTF-8 Plain Text
Duration : 24 min 7 s
Bit rate : 43 b/s
Count of elements : 254
Stream size : 7.74 KiB (0%)
Title : Norsk
Language : Norwegian
Default : No
Forced : No

Text #10
ID : 12
Format : UTF-8
Codec ID : S_TEXT/UTF8
Codec ID/Info : UTF-8 Plain Text
Duration : 24 min 18 s
Bit rate : 42 b/s
Count of elements : 254
Stream size : 7.54 KiB (0%)
Title : Polski
Language : Polish
Default : No
Forced : No

Text #11
ID : 13
Format : UTF-8
Codec ID : S_TEXT/UTF8
Codec ID/Info : UTF-8 Plain Text
Duration : 24 min 7 s
Bit rate : 46 b/s
Count of elements : 253
Stream size : 8.20 KiB (0%)
Title : Português
Language : Portuguese
Default : No
Forced : No

Text #12
ID : 14
Format : UTF-8
Codec ID : S_TEXT/UTF8
Codec ID/Info : UTF-8 Plain Text
Duration : 24 min 4 s
Bit rate : 45 b/s
Count of elements : 246
Stream size : 8.01 KiB (0%)
Title : Português (Brasil)
Language : Portuguese
Default : No
Forced : No

Text #13
ID : 15
Format : UTF-8
Codec ID : S_TEXT/UTF8
Codec ID/Info : UTF-8 Plain Text
Duration : 24 min 7 s
Bit rate : 44 b/s
Count of elements : 254
Stream size : 7.88 KiB (0%)
Title : Svenska
Language : Swedish
Default : No
Forced : No

Text #14
ID : 16
Format : UTF-8
Codec ID : S_TEXT/UTF8
Codec ID/Info : UTF-8 Plain Text
Duration : 23 min 13 s
Bit rate : 55 b/s
Count of elements : 330
Stream size : 9.39 KiB (0%)
Title : English (SDH)
Language : English
Default : No
Forced : No





The Bad Batch S01E09


The Bad Batch S01E09


The Bad Batch S01E09


The Bad Batch S01E09


The Bad Batch S01E09

All episodes