Index
# A B C D E F G H I J K L M N O P Q R S T U V W Y Z
Tags
Language
Tags

Featured TV Shows


Seattle Firefighters - Die jungen Helden S01E10

Posted By: Tavaz
SD / HDTV IMDb
Seattle Firefighters - Die jungen Helden S01E10

Seattle Firefighters - Die jungen Helden S01E10
HDTV | MKV | 720x404 | English | H264 @ 1020 kbps | AC-3 @ 448 kbps | 40 min 37 s | 435 MiB
Genre: Drama

A group of heroic firefighters at Seattle Fire Station 19—from captain to newest recruit—risk their lives and hearts both in the line of duty and off the clock. These brave men and women are like family, literally and figuratively, and together they put their own lives in jeopardy as first responders to save the lives of others.

ST19 S01E10 Keine Helden vom feinsten.mkv (435.2 MB)



General
Unique ID : 189987613490671933089628633276208079079 (0x8EEE488C24FDDFC1924BE8F2304360E7)
Complete name : ./ST19 S01E10 German/ST19 S01E10 Keine Helden vom feinsten.mkv
Format : Matroska
Format version : Version 1
File size : 435 MiB
Duration : 40 min 37 s
Overall bit rate : 1 498 kb/s
Encoded date : UTC 2018-09-18 12:26:12
Writing application : mkvmerge v2.2.0 ('Turn It On Again') built on Mar 4 2008 12:58:26
Writing library : libebml v0.7.7 + libmatroska v0.8.1

Video
ID : 1
Format : AVC
Format/Info : Advanced Video Codec
Format profile : High@L3.1
Format settings : CABAC / 5 Ref Frames
Format settings, CABAC : Yes
Format settings, RefFrames : 5 frames
Codec ID : V_MPEG4/ISO/AVC
Duration : 40 min 37 s
Bit rate : 1 020 kb/s
Width : 720 pixels
Height : 404 pixels
Display aspect ratio : 16:9
Frame rate mode : Constant
Frame rate : 25.000 FPS
Color space : YUV
Chroma subsampling : 4:2:0
Bit depth : 8 bits
Scan type : Progressive
Bits/(Pixel*Frame) : 0.140
Stream size : 296 MiB (68%)
Writing library : x264 core 155 r2901 7d0ff22
Encoding settings : cabac=1 / ref=5 / deblock=1:0:0 / analyse=0x3:0x113 / me=hex / subme=8 / psy=1 / psy_rd=1.00:0.00 / mixed_ref=1 / me_range=16 / chroma_me=1 / trellis=2 / 8x8dct=1 / cqm=0 / deadzone=21,11 / fast_pskip=1 / chroma_qp_offset=-2 / threads=12 / lookahead_threads=2 / sliced_threads=0 / nr=0 / decimate=1 / interlaced=0 / bluray_compat=0 / constrained_intra=0 / bframes=3 / b_pyramid=2 / b_adapt=1 / b_bias=0 / direct=3 / weightb=1 / open_gop=0 / weightp=2 / keyint=250 / keyint_min=25 / scenecut=40 / intra_refresh=0 / rc_lookahead=50 / rc=crf / mbtree=1 / crf=19.0 / qcomp=0.60 / qpmin=0 / qpmax=69 / qpstep=4 / ip_ratio=1.40 / aq=1:1.00
Default : Yes
Forced : No

Audio
ID : 2
Format : AC-3
Format/Info : Audio Coding 3
Format settings, Endianness : Big
Codec ID : A_AC3
Duration : 40 min 37 s
Bit rate mode : Constant
Bit rate : 448 kb/s
Channel(s) : 6 channels
Channel positions : Front: L C R, Side: L R, LFE
Sampling rate : 48.0 kHz
Frame rate : 31.250 FPS (1536 SPF)
Bit depth : 16 bits
Compression mode : Lossy
Stream size : 130 MiB (30%)
Service kind : Complete Main
Default : Yes
Forced : No





Seattle Firefighters - Die jungen Helden S01E10


Seattle Firefighters - Die jungen Helden S01E10


Seattle Firefighters - Die jungen Helden S01E10


Seattle Firefighters - Die jungen Helden S01E10


Seattle Firefighters - Die jungen Helden S01E10

All episodes