Featured TV Shows


Strange Angel S01E02

Posted By: Tavaz
720p (HD) / WEB-DL IMDb
Strange Angel S01E02

Strange Angel S01E02
WEB-DL | MKV | 1280x688 | English | H264 @ 3853 kbps | E-AC-3 @ 640 kbps | 49 min 29 s | 1.55 GiB
Subtitles: English
Genre: Drama

The story of the mysterious and brilliant Jack Parsons in 1940s Los Angeles as by day he helps birth the discipline of American rocketry and by night is a performer of sex magick rituals and a disciple to occultist Aleister Crowley.

7122120eec6e479a9d9d71f4f47d12ba.mkv (1.6 GB)



General
Unique ID : 46234769200737202532535852829745613630 (0x22C87E1E2669A82DF6612728C7F00B3E)
Complete name : ./7122120eec6e479a9d9d71f4f47d12ba.mkv
Format : Matroska
Format version : Version 4 / Version 2
File size : 1.55 GiB
Duration : 49 min 29 s
Overall bit rate : 4 495 kb/s
Encoded date : UTC 2018-06-21 11:34:24
Writing application : mkvmerge v21.0.0 ('Tardigrades Will Inherit The Earth') 64-bit
Writing library : libebml v1.3.5 + libmatroska v1.4.8

Video
ID : 1
Format : AVC
Format/Info : Advanced Video Codec
Format profile : High@L3.1
Format settings : CABAC / 5 Ref Frames
Format settings, CABAC : Yes
Format settings, RefFrames : 5 frames
Codec ID : V_MPEG4/ISO/AVC
Duration : 49 min 29 s
Bit rate : 3 853 kb/s
Width : 1 280 pixels
Height : 688 pixels
Display aspect ratio : 1.85:1
Frame rate mode : Constant
Frame rate : 24.000 FPS
Color space : YUV
Chroma subsampling : 4:2:0
Bit depth : 8 bits
Scan type : Progressive
Bits/(Pixel*Frame) : 0.182
Stream size : 1.33 GiB (86%)
Default : Yes
Forced : No
Color range : Limited
Color primaries : BT.709
Transfer characteristics : BT.709
Matrix coefficients : BT.709

Audio
ID : 2
Format : E-AC-3
Format/Info : Enhanced Audio Coding 3
Format settings, Endianness : Big
Codec ID : A_EAC3
Duration : 49 min 29 s
Bit rate mode : Constant
Bit rate : 640 kb/s
Channel(s) : 6 channels
Channel positions : Front: L C R, Side: L R, LFE
Sampling rate : 48.0 kHz
Frame rate : 187.500 FPS (256 SPF)
Compression mode : Lossy
Stream size : 227 MiB (14%)
Language : English
Service kind : Complete Main
Default : Yes
Forced : No

Text
ID : 3
Format : UTF-8
Codec ID : S_TEXT/UTF8
Codec ID/Info : UTF-8 Plain Text
Duration : 47 min 24 s
Bit rate : 69 b/s
Count of elements : 789
Stream size : 24.2 KiB (0%)
Title : SDH
Language : English
Default : No
Forced : No





Strange Angel S01E02


Strange Angel S01E02


Strange Angel S01E02


Strange Angel S01E02


Strange Angel S01E02

All episodes