Index
# A B C D E F G H I J K L M N O P Q R S T U V W X Y Z
Tags
Language
Tags
July 2024
Su Mo Tu We Th Fr Sa
30 1 2 3 4 5 6
7 8 9 10 11 12 13
14 15 16 17 18 19 20
21 22 23 24 25 26 27
28 29 30 31 1 2 3

Featured TV Shows


Stranger Things S02E05

Posted By: Tavaz
1080p (FullHD) / WEB-DL IMDb
Stranger Things S02E05

Stranger Things S02E05
WEB-DL | MKV | 1920x1080 | Italiano / Português / Français / Deutsch / Español / Türkçe / Русский / tiếng Việt / Čeština / Bahasa Indonesia / 日本語 / ภาษาไทย / Magyar / English / हिन्दी / Polski / Українська | H264 @ 5000 kbps | E-AC-3 @ 640.0 kbps | 58 min 53 s | 7.52 GiB
Subtitles: Español, Dansk, Українська, Suomi, Italiano, Hrvatski, العربية, עברית, Bahasa Indonesia, ภาษาไทย, Türkçe, English, Polski, Português, Français, Bokmål, Русский, tiếng Việt, Čeština, Magyar, 한국어, Ελληνικά, 中文, Deutsch, Nederlands, Română, Svenska, 日本語, हिन्दी
Genre: Drama, Mystery


When a young boy vanishes, a small town uncovers a mystery involving secret experiments, terrifying supernatural forces, and one strange little girl.

Stranger.Things.S02E05.Capitulo.cinco.Dig.Dug.1080p.NF.WEB-DL.DDP5.1.H.264.MULTi-OLYMPUS.mkv (7.5 GB)



General
Unique ID : 153233425890964358971194053069114316004 (0x7347AF30EF76DE73F7F5D17D4C2E14E4)
Complete name : ./Stranger.Things.S02E05.Capitulo.cinco.Dig.Dug.1080p.NF.WEB-DL.DDP5.1.H.264.MULTi-OLYMPUS.mkv
Format : Matroska
Format version : Version 4
File size : 7.52 GiB
Duration : 58 min 53 s
Overall bit rate mode : Variable
Overall bit rate : 18.3 Mb/s
Encoded date : UTC 2024-05-14 23:19:02
Writing application : mkvmerge v84.0 ('Sleeper') 64-bit
Writing library : libebml v1.4.5 + libmatroska v1.7.1

Video
ID : 1
Format : AVC
Format/Info : Advanced Video Codec
Format profile : Main@L4
Format settings : CABAC / 3 Ref Frames
Format settings, CABAC : Yes
Format settings, Reference frames : 3 frames
Codec ID : V_MPEG4/ISO/AVC
Duration : 58 min 53 s
Bit rate mode : Variable
Bit rate : 5 000 kb/s
Maximum bit rate : 7 500 kb/s
Width : 1 920 pixels
Height : 1 080 pixels
Display aspect ratio : 16:9
Frame rate mode : Constant
Frame rate : 23.976 (24000/1001) FPS
Color space : YUV
Chroma subsampling : 4:2:0
Bit depth : 8 bits
Scan type : Progressive
Bits/(Pixel*Frame) : 0.101
Stream size : 1.99 GiB (26%)
Writing library : x264 core 148 r2727 7d026e8
Encoding settings : cabac=1 / ref=3 / deblock=1:0:0 / analyse=0x1:0x111 / me=umh / subme=10 / psy=1 / psy_rd=1.00:0.00 / mixed_ref=1 / me_range=24 / chroma_me=1 / trellis=2 / 8x8dct=0 / cqm=0 / deadzone=21,11 / fast_pskip=1 / chroma_qp_offset=-2 / threads=6 / lookahead_threads=1 / sliced_threads=0 / nr=0 / decimate=1 / interlaced=0 / bluray_compat=0 / stitchable=1 / constrained_intra=0 / bframes=2 / b_pyramid=0 / b_adapt=2 / b_bias=0 / direct=3 / weightb=1 / open_gop=0 / weightp=2 / keyint=240 / keyint_min=121 / scenecut=0 / intra_refresh=0 / rc_lookahead=48 / rc=2pass / mbtree=1 / bitrate=5000 / ratetol=1.0 / qcomp=0.50 / qpmin=6 / qpmax=51 / qpstep=4 / cplxblur=20.0 / qblur=0.5 / vbv_maxrate=7500 / vbv_bufsize=10000 / nal_hrd=vbr / filler=0 / ip_ratio=1.40 / aq=1:1.00
Default : Yes
Forced : No

Audio #1
ID : 2
Format : E-AC-3
Format/Info : Enhanced AC-3
Commercial name : Dolby Digital Plus
Codec ID : A_EAC3
Duration : 58 min 53 s
Bit rate mode : Constant
Bit rate : 640 kb/s
Channel(s) : 6 channels
Channel layout : L R C LFE Ls Rs
Sampling rate : 48.0 kHz
Frame rate : 31.250 FPS (1536 SPF)
Compression mode : Lossy
Stream size : 270 MiB (4%)
Language : English
Service kind : Complete Main
Default : Yes
Forced : No

Audio #2
ID : 3
Format : E-AC-3
Format/Info : Enhanced AC-3
Commercial name : Dolby Digital Plus
Codec ID : A_EAC3
Duration : 58 min 53 s
Bit rate mode : Constant
Bit rate : 640 kb/s
Channel(s) : 6 channels
Channel layout : L R C LFE Ls Rs
Sampling rate : 48.0 kHz
Frame rate : 31.250 FPS (1536 SPF)
Compression mode : Lossy
Stream size : 270 MiB (4%)
Title : Brazilian
Language : Portuguese
Service kind : Complete Main
Default : No
Forced : No

Audio #3
ID : 4
Format : E-AC-3
Format/Info : Enhanced AC-3
Commercial name : Dolby Digital Plus
Codec ID : A_EAC3
Duration : 58 min 53 s
Bit rate mode : Constant
Bit rate : 640 kb/s
Channel(s) : 6 channels
Channel layout : L R C LFE Ls Rs
Sampling rate : 48.0 kHz
Frame rate : 31.250 FPS (1536 SPF)
Compression mode : Lossy
Stream size : 270 MiB (4%)
Language : Czech
Service kind : Complete Main
Default : No
Forced : No

Audio #4
ID : 5
Format : E-AC-3
Format/Info : Enhanced AC-3
Commercial name : Dolby Digital Plus
Codec ID : A_EAC3
Duration : 58 min 53 s
Bit rate mode : Constant
Bit rate : 640 kb/s
Channel(s) : 6 channels
Channel layout : L R C LFE Ls Rs
Sampling rate : 48.0 kHz
Frame rate : 31.250 FPS (1536 SPF)
Compression mode : Lossy
Stream size : 270 MiB (4%)
Language : German
Service kind : Complete Main
Default : No
Forced : No

Audio #5
ID : 6
Format : E-AC-3
Format/Info : Enhanced AC-3
Commercial name : Dolby Digital Plus
Codec ID : A_EAC3
Duration : 58 min 53 s
Bit rate mode : Constant
Bit rate : 640 kb/s
Channel(s) : 6 channels
Channel layout : L R C LFE Ls Rs
Sampling rate : 48.0 kHz
Frame rate : 31.250 FPS (1536 SPF)
Compression mode : Lossy
Stream size : 270 MiB (4%)
Title : Latin American
Language : Spanish
Service kind : Complete Main
Default : No
Forced : No

Audio #6
ID : 7
Format : E-AC-3
Format/Info : Enhanced AC-3
Commercial name : Dolby Digital Plus
Codec ID : A_EAC3
Duration : 58 min 53 s
Bit rate mode : Constant
Bit rate : 640 kb/s
Channel(s) : 6 channels
Channel layout : L R C LFE Ls Rs
Sampling rate : 48.0 kHz
Frame rate : 31.250 FPS (1536 SPF)
Compression mode : Lossy
Stream size : 270 MiB (4%)
Title : European
Language : Spanish
Service kind : Complete Main
Default : No
Forced : No

Audio #7
ID : 8
Format : E-AC-3
Format/Info : Enhanced AC-3
Commercial name : Dolby Digital Plus
Codec ID : A_EAC3
Duration : 58 min 53 s
Bit rate mode : Constant
Bit rate : 640 kb/s
Channel(s) : 6 channels
Channel layout : L R C LFE Ls Rs
Sampling rate : 48.0 kHz
Frame rate : 31.250 FPS (1536 SPF)
Compression mode : Lossy
Stream size : 270 MiB (4%)
Language : fil
Service kind : Complete Main
Default : No
Forced : No

Audio #8
ID : 9
Format : E-AC-3
Format/Info : Enhanced AC-3
Commercial name : Dolby Digital Plus
Codec ID : A_EAC3
Duration : 58 min 53 s
Bit rate mode : Constant
Bit rate : 640 kb/s
Channel(s) : 6 channels
Channel layout : L R C LFE Ls Rs
Sampling rate : 48.0 kHz
Frame rate : 31.250 FPS (1536 SPF)
Compression mode : Lossy
Stream size : 270 MiB (4%)
Language : French
Service kind : Complete Main
Default : No
Forced : No

Audio #9
ID : 10
Format : E-AC-3
Format/Info : Enhanced AC-3
Commercial name : Dolby Digital Plus
Codec ID : A_EAC3
Duration : 58 min 53 s
Bit rate mode : Constant
Bit rate : 640 kb/s
Channel(s) : 6 channels
Channel layout : L R C LFE Ls Rs
Sampling rate : 48.0 kHz
Frame rate : 31.250 FPS (1536 SPF)
Compression mode : Lossy
Stream size : 270 MiB (4%)
Language : Hindi
Service kind : Complete Main
Default : No
Forced : No

Audio #10
ID : 11
Format : E-AC-3
Format/Info : Enhanced AC-3
Commercial name : Dolby Digital Plus
Codec ID : A_EAC3
Duration : 58 min 53 s
Bit rate mode : Constant
Bit rate : 640 kb/s
Channel(s) : 6 channels
Channel layout : L R C LFE Ls Rs
Sampling rate : 48.0 kHz
Frame rate : 31.250 FPS (1536 SPF)
Compression mode : Lossy
Stream size : 270 MiB (4%)
Language : Hungarian
Service kind : Complete Main
Default : No
Forced : No

Audio #11
ID : 12
Format : E-AC-3
Format/Info : Enhanced AC-3
Commercial name : Dolby Digital Plus
Codec ID : A_EAC3
Duration : 58 min 53 s
Bit rate mode : Constant
Bit rate : 640 kb/s
Channel(s) : 6 channels
Channel layout : L R C LFE Ls Rs
Sampling rate : 48.0 kHz
Frame rate : 31.250 FPS (1536 SPF)
Compression mode : Lossy
Stream size : 270 MiB (4%)
Language : Indonesian
Service kind : Complete Main
Default : No
Forced : No

Audio #12
ID : 13
Format : E-AC-3
Format/Info : Enhanced AC-3
Commercial name : Dolby Digital Plus
Codec ID : A_EAC3
Duration : 58 min 53 s
Bit rate mode : Constant
Bit rate : 640 kb/s
Channel(s) : 6 channels
Channel layout : L R C LFE Ls Rs
Sampling rate : 48.0 kHz
Frame rate : 31.250 FPS (1536 SPF)
Compression mode : Lossy
Stream size : 270 MiB (4%)
Language : Italian
Service kind : Complete Main
Default : No
Forced : No

Audio #13
ID : 14
Format : E-AC-3
Format/Info : Enhanced AC-3
Commercial name : Dolby Digital Plus
Codec ID : A_EAC3
Duration : 58 min 53 s
Bit rate mode : Constant
Bit rate : 640 kb/s
Channel(s) : 6 channels
Channel layout : L R C LFE Ls Rs
Sampling rate : 48.0 kHz
Frame rate : 31.250 FPS (1536 SPF)
Compression mode : Lossy
Stream size : 270 MiB (4%)
Language : Japanese
Service kind : Complete Main
Default : No
Forced : No

Audio #14
ID : 15
Format : E-AC-3
Format/Info : Enhanced AC-3
Commercial name : Dolby Digital Plus
Codec ID : A_EAC3
Duration : 58 min 53 s
Bit rate mode : Constant
Bit rate : 640 kb/s
Channel(s) : 6 channels
Channel layout : L R C LFE Ls Rs
Sampling rate : 48.0 kHz
Frame rate : 31.250 FPS (1536 SPF)
Compression mode : Lossy
Stream size : 270 MiB (4%)
Language : Polish
Service kind : Complete Main
Default : No
Forced : No

Audio #15
ID : 16
Format : E-AC-3
Format/Info : Enhanced AC-3
Commercial name : Dolby Digital Plus
Codec ID : A_EAC3
Duration : 58 min 53 s
Bit rate mode : Constant
Bit rate : 640 kb/s
Channel(s) : 6 channels
Channel layout : L R C LFE Ls Rs
Sampling rate : 48.0 kHz
Frame rate : 31.250 FPS (1536 SPF)
Compression mode : Lossy
Stream size : 270 MiB (4%)
Language : Russian
Service kind : Complete Main
Default : No
Forced : No

Audio #16
ID : 17
Format : E-AC-3
Format/Info : Enhanced AC-3
Commercial name : Dolby Digital Plus
Codec ID : A_EAC3
Duration : 58 min 53 s
Bit rate mode : Constant
Bit rate : 640 kb/s
Channel(s) : 6 channels
Channel layout : L R C LFE Ls Rs
Sampling rate : 48.0 kHz
Frame rate : 31.250 FPS (1536 SPF)
Compression mode : Lossy
Stream size : 270 MiB (4%)
Language : Tamil
Service kind : Complete Main
Default : No
Forced : No

Audio #17
ID : 18
Format : E-AC-3
Format/Info : Enhanced AC-3
Commercial name : Dolby Digital Plus
Codec ID : A_EAC3
Duration : 58 min 53 s
Bit rate mode : Constant
Bit rate : 640 kb/s
Channel(s) : 6 channels
Channel layout : L R C LFE Ls Rs
Sampling rate : 48.0 kHz
Frame rate : 31.250 FPS (1536 SPF)
Compression mode : Lossy
Stream size : 270 MiB (4%)
Language : Telugu
Service kind : Complete Main
Default : No
Forced : No

Audio #18
ID : 19
Format : E-AC-3
Format/Info : Enhanced AC-3
Commercial name : Dolby Digital Plus
Codec ID : A_EAC3
Duration : 58 min 53 s
Bit rate mode : Constant
Bit rate : 640 kb/s
Channel(s) : 6 channels
Channel layout : L R C LFE Ls Rs
Sampling rate : 48.0 kHz
Frame rate : 31.250 FPS (1536 SPF)
Compression mode : Lossy
Stream size : 270 MiB (4%)
Language : Thai
Service kind : Complete Main
Default : No
Forced : No

Audio #19
ID : 20
Format : E-AC-3
Format/Info : Enhanced AC-3
Commercial name : Dolby Digital Plus
Codec ID : A_EAC3
Duration : 58 min 53 s
Bit rate mode : Constant
Bit rate : 640 kb/s
Channel(s) : 6 channels
Channel layout : L R C LFE Ls Rs
Sampling rate : 48.0 kHz
Frame rate : 31.250 FPS (1536 SPF)
Compression mode : Lossy
Stream size : 270 MiB (4%)
Language : Turkish
Service kind : Complete Main
Default : No
Forced : No

Audio #20
ID : 21
Format : E-AC-3
Format/Info : Enhanced AC-3
Commercial name : Dolby Digital Plus
Codec ID : A_EAC3
Duration : 58 min 53 s
Bit rate mode : Constant
Bit rate : 640 kb/s
Channel(s) : 6 channels
Channel layout : L R C LFE Ls Rs
Sampling rate : 48.0 kHz
Frame rate : 31.250 FPS (1536 SPF)
Compression mode : Lossy
Stream size : 270 MiB (4%)
Language : Ukrainian
Service kind : Complete Main
Default : No
Forced : No

Audio #21
ID : 22
Format : E-AC-3
Format/Info : Enhanced AC-3
Commercial name : Dolby Digital Plus
Codec ID : A_EAC3
Duration : 58 min 53 s
Bit rate mode : Constant
Bit rate : 640 kb/s
Channel(s) : 6 channels
Channel layout : L R C LFE Ls Rs
Sampling rate : 48.0 kHz
Frame rate : 31.250 FPS (1536 SPF)
Compression mode : Lossy
Stream size : 270 MiB (4%)
Language : Vietnamese
Service kind : Complete Main
Default : No
Forced : No

Text #1
ID : 23
Format : UTF-8
Codec ID : S_TEXT/UTF8
Codec ID/Info : UTF-8 Plain Text
Duration : 55 min 20 s
Bit rate : 0 b/s
Frame rate : 0.003 FPS
Count of elements : 10
Stream size : 246 Bytes (0%)
Title : Brazilian (Forced)
Language : Portuguese
Default : No
Forced : Yes

Text #2
ID : 24
Format : UTF-8
Codec ID : S_TEXT/UTF8
Codec ID/Info : UTF-8 Plain Text
Duration : 54 min 13 s
Bit rate : 48 b/s
Frame rate : 0.208 FPS
Count of elements : 678
Stream size : 19.4 KiB (0%)
Title : Brazilian
Language : Portuguese
Default : No
Forced : No

Text #3
ID : 25
Format : UTF-8
Codec ID : S_TEXT/UTF8
Codec ID/Info : UTF-8 Plain Text
Duration : 54 min 39 s
Bit rate : 42 b/s
Frame rate : 0.193 FPS
Count of elements : 633
Stream size : 17.2 KiB (0%)
Title : Brazilian
Language : Portuguese
Default : No
Forced : No

Text #4
ID : 26
Format : UTF-8
Codec ID : S_TEXT/UTF8
Codec ID/Info : UTF-8 Plain Text
Duration : 54 min 33 s
Bit rate : 58 b/s
Frame rate : 0.246 FPS
Count of elements : 805
Stream size : 23.3 KiB (0%)
Title : Brazilian (SDH)
Language : Portuguese
Default : No
Forced : No

Text #5
ID : 27
Format : UTF-8
Codec ID : S_TEXT/UTF8
Codec ID/Info : UTF-8 Plain Text
Duration : 56 min 17 s
Bit rate : 42 b/s
Frame rate : 0.190 FPS
Count of elements : 642
Stream size : 17.4 KiB (0%)
Title : European
Language : Portuguese
Default : No
Forced : No

Text #6
ID : 28
Format : UTF-8
Codec ID : S_TEXT/UTF8
Codec ID/Info : UTF-8 Plain Text
Duration : 56 min 17 s
Bit rate : 73 b/s
Frame rate : 0.194 FPS
Count of elements : 656
Stream size : 30.4 KiB (0%)
Language : Arabic
Default : No
Forced : No

Text #7
ID : 29
Format : UTF-8
Codec ID : S_TEXT/UTF8
Codec ID/Info : UTF-8 Plain Text
Duration : 55 min 17 s
Bit rate : 0 b/s
Frame rate : 0.002 FPS
Count of elements : 7
Stream size : 161 Bytes (0%)
Title : Forced
Language : Czech
Default : No
Forced : Yes

Text #8
ID : 30
Format : UTF-8
Codec ID : S_TEXT/UTF8
Codec ID/Info : UTF-8 Plain Text
Duration : 56 min 13 s
Bit rate : 43 b/s
Frame rate : 0.197 FPS
Count of elements : 664
Stream size : 17.9 KiB (0%)
Language : Czech
Default : No
Forced : No

Text #9
ID : 31
Format : UTF-8
Codec ID : S_TEXT/UTF8
Codec ID/Info : UTF-8 Plain Text
Duration : 56 min 17 s
Bit rate : 41 b/s
Frame rate : 0.189 FPS
Count of elements : 640
Stream size : 17.1 KiB (0%)
Language : Danish
Default : No
Forced : No

Text #10
ID : 32
Format : UTF-8
Codec ID : S_TEXT/UTF8
Codec ID/Info : UTF-8 Plain Text
Duration : 46 min 53 s
Bit rate : 0 b/s
Frame rate : 0.003 FPS
Count of elements : 8
Stream size : 178 Bytes (0%)
Title : Forced
Language : German
Default : No
Forced : Yes

Text #11
ID : 33
Format : UTF-8
Codec ID : S_TEXT/UTF8
Codec ID/Info : UTF-8 Plain Text
Duration : 54 min 13 s
Bit rate : 42 b/s
Frame rate : 0.193 FPS
Count of elements : 628
Stream size : 17.0 KiB (0%)
Language : German
Default : No
Forced : No

Text #12
ID : 34
Format : UTF-8
Codec ID : S_TEXT/UTF8
Codec ID/Info : UTF-8 Plain Text
Duration : 54 min 13 s
Bit rate : 51 b/s
Frame rate : 0.195 FPS
Count of elements : 634
Stream size : 20.4 KiB (0%)
Language : German
Default : No
Forced : No

Text #13
ID : 35
Format : UTF-8
Codec ID : S_TEXT/UTF8
Codec ID/Info : UTF-8 Plain Text
Duration : 56 min 28 s
Bit rate : 61 b/s
Frame rate : 0.244 FPS
Count of elements : 826
Stream size : 25.3 KiB (0%)
Title : SDH
Language : German
Default : No
Forced : No

Text #14
ID : 36
Format : UTF-8
Codec ID : S_TEXT/UTF8
Codec ID/Info : UTF-8 Plain Text
Duration : 56 min 17 s
Bit rate : 69 b/s
Frame rate : 0.196 FPS
Count of elements : 663
Stream size : 28.5 KiB (0%)
Language : Greek
Default : No
Forced : No

Text #15
ID : 37
Format : UTF-8
Codec ID : S_TEXT/UTF8
Codec ID/Info : UTF-8 Plain Text
Duration : 54 min 48 s
Bit rate : 56 b/s
Frame rate : 0.245 FPS
Count of elements : 807
Stream size : 22.7 KiB (0%)
Title : SDH
Language : English
Default : No
Forced : No

Text #16
ID : 38
Format : UTF-8
Codec ID : S_TEXT/UTF8
Codec ID/Info : UTF-8 Plain Text
Duration : 55 min 20 s
Bit rate : 0 b/s
Frame rate : 0.003 FPS
Count of elements : 10
Stream size : 211 Bytes (0%)
Title : Latin American (Forced)
Language : Spanish
Default : No
Forced : Yes

Text #17
ID : 39
Format : UTF-8
Codec ID : S_TEXT/UTF8
Codec ID/Info : UTF-8 Plain Text
Duration : 56 min 14 s
Bit rate : 44 b/s
Frame rate : 0.203 FPS
Count of elements : 686
Stream size : 18.5 KiB (0%)
Title : Latin American
Language : Spanish
Default : No
Forced : No

Text #18
ID : 40
Format : UTF-8
Codec ID : S_TEXT/UTF8
Codec ID/Info : UTF-8 Plain Text
Duration : 56 min 17 s
Bit rate : 41 b/s
Frame rate : 0.189 FPS
Count of elements : 638
Stream size : 17.0 KiB (0%)
Title : Latin American
Language : Spanish
Default : No
Forced : No

Text #19
ID : 41
Format : UTF-8
Codec ID : S_TEXT/UTF8
Codec ID/Info : UTF-8 Plain Text
Duration : 56 min 21 s
Bit rate : 51 b/s
Frame rate : 0.235 FPS
Count of elements : 795
Stream size : 21.4 KiB (0%)
Title : Latin American (SDH)
Language : Spanish
Default : No
Forced : No

Text #20
ID : 42
Format : UTF-8
Codec ID : S_TEXT/UTF8
Codec ID/Info : UTF-8 Plain Text
Duration : 55 min 20 s
Bit rate : 0 b/s
Frame rate : 0.002 FPS
Count of elements : 7
Stream size : 156 Bytes (0%)
Title : European (Forced)
Language : Spanish
Default : No
Forced : Yes

Text #21
ID : 43
Format : UTF-8
Codec ID : S_TEXT/UTF8
Codec ID/Info : UTF-8 Plain Text
Duration : 56 min 17 s
Bit rate : 41 b/s
Frame rate : 0.191 FPS
Count of elements : 646
Stream size : 17.2 KiB (0%)
Title : European
Language : Spanish
Default : No
Forced : No

Text #22
ID : 44
Format : UTF-8
Codec ID : S_TEXT/UTF8
Codec ID/Info : UTF-8 Plain Text
Duration : 54 min 13 s
Bit rate : 48 b/s
Frame rate : 0.201 FPS
Count of elements : 653
Stream size : 19.1 KiB (0%)
Title : European
Language : Spanish
Default : No
Forced : No

Text #23
ID : 45
Format : UTF-8
Codec ID : S_TEXT/UTF8
Codec ID/Info : UTF-8 Plain Text
Duration : 54 min 48 s
Bit rate : 64 b/s
Frame rate : 0.269 FPS
Count of elements : 886
Stream size : 25.9 KiB (0%)
Title : European (SDH)
Language : Spanish
Default : No
Forced : No

Text #24
ID : 46
Format : UTF-8
Codec ID : S_TEXT/UTF8
Codec ID/Info : UTF-8 Plain Text
Duration : 56 min 17 s
Bit rate : 34 b/s
Frame rate : 0.172 FPS
Count of elements : 580
Stream size : 14.2 KiB (0%)
Language : Finnish
Default : No
Forced : No

Text #25
ID : 47
Format : UTF-8
Codec ID : S_TEXT/UTF8
Codec ID/Info : UTF-8 Plain Text
Duration : 3 s 44 ms
Bit rate : 139 b/s
Frame rate : 0.329 FPS
Count of elements : 1
Stream size : 53.0 Bytes (0%)
Title : Forced
Language : fil
Default : No
Forced : Yes

Text #26
ID : 48
Format : UTF-8
Codec ID : S_TEXT/UTF8
Codec ID/Info : UTF-8 Plain Text
Duration : 56 min 17 s
Bit rate : 41 b/s
Frame rate : 0.186 FPS
Count of elements : 628
Stream size : 17.0 KiB (0%)
Language : fil
Default : No
Forced : No

Text #27
ID : 49
Format : UTF-8
Codec ID : S_TEXT/UTF8
Codec ID/Info : UTF-8 Plain Text
Duration : 55 min 20 s
Bit rate : 0 b/s
Frame rate : 0.002 FPS
Count of elements : 8
Stream size : 185 Bytes (0%)
Title : Forced
Language : French
Default : No
Forced : Yes

Text #28
ID : 50
Format : UTF-8
Codec ID : S_TEXT/UTF8
Codec ID/Info : UTF-8 Plain Text
Duration : 56 min 17 s
Bit rate : 42 b/s
Frame rate : 0.182 FPS
Count of elements : 616
Stream size : 17.5 KiB (0%)
Language : French
Default : No
Forced : No

Text #29
ID : 51
Format : UTF-8
Codec ID : S_TEXT/UTF8
Codec ID/Info : UTF-8 Plain Text
Duration : 54 min 49 s
Bit rate : 60 b/s
Frame rate : 0.246 FPS
Count of elements : 809
Stream size : 24.1 KiB (0%)
Language : French
Default : No
Forced : No

Text #30
ID : 52
Format : UTF-8
Codec ID : S_TEXT/UTF8
Codec ID/Info : UTF-8 Plain Text
Duration : 54 min 49 s
Bit rate : 60 b/s
Frame rate : 0.246 FPS
Count of elements : 809
Stream size : 24.1 KiB (0%)
Title : SDH
Language : French
Default : No
Forced : No

Text #31
ID : 53
Format : UTF-8
Codec ID : S_TEXT/UTF8
Codec ID/Info : UTF-8 Plain Text
Duration : 54 min 39 s
Bit rate : 69 b/s
Frame rate : 0.200 FPS
Count of elements : 657
Stream size : 27.9 KiB (0%)
Language : Hebrew
Default : No
Forced : No

Text #32
ID : 54
Format : UTF-8
Codec ID : S_TEXT/UTF8
Codec ID/Info : UTF-8 Plain Text
Duration : 51 min 59 s
Bit rate : 1 b/s
Frame rate : 0.004 FPS
Count of elements : 11
Stream size : 560 Bytes (0%)
Title : Forced
Language : Hindi
Default : No
Forced : Yes

Text #33
ID : 55
Format : UTF-8
Codec ID : S_TEXT/UTF8
Codec ID/Info : UTF-8 Plain Text
Duration : 56 min 17 s
Bit rate : 39 b/s
Frame rate : 0.191 FPS
Count of elements : 645
Stream size : 16.4 KiB (0%)
Language : Croatian
Default : No
Forced : No

Text #34
ID : 56
Format : UTF-8
Codec ID : S_TEXT/UTF8
Codec ID/Info : UTF-8 Plain Text
Duration : 55 min 21 s
Bit rate : 0 b/s
Frame rate : 0.002 FPS
Count of elements : 7
Stream size : 179 Bytes (0%)
Title : Forced
Language : Hungarian
Default : No
Forced : Yes

Text #35
ID : 57
Format : UTF-8
Codec ID : S_TEXT/UTF8
Codec ID/Info : UTF-8 Plain Text
Duration : 56 min 13 s
Bit rate : 45 b/s
Frame rate : 0.195 FPS
Count of elements : 658
Stream size : 18.9 KiB (0%)
Language : Hungarian
Default : No
Forced : No

Text #36
ID : 58
Format : UTF-8
Codec ID : S_TEXT/UTF8
Codec ID/Info : UTF-8 Plain Text
Duration : 54 min 13 s
Bit rate : 41 b/s
Frame rate : 0.193 FPS
Count of elements : 628
Stream size : 16.4 KiB (0%)
Language : Indonesian
Default : No
Forced : No

Text #37
ID : 59
Format : UTF-8
Codec ID : S_TEXT/UTF8
Codec ID/Info : UTF-8 Plain Text
Duration : 55 min 19 s
Bit rate : 0 b/s
Frame rate : 0.003 FPS
Count of elements : 10
Stream size : 241 Bytes (0%)
Title : Forced
Language : Italian
Default : No
Forced : Yes

Text #38
ID : 60
Format : UTF-8
Codec ID : S_TEXT/UTF8
Codec ID/Info : UTF-8 Plain Text
Duration : 56 min 17 s
Bit rate : 40 b/s
Frame rate : 0.184 FPS
Count of elements : 620
Stream size : 16.7 KiB (0%)
Language : Italian
Default : No
Forced : No

Text #39
ID : 61
Format : UTF-8
Codec ID : S_TEXT/UTF8
Codec ID/Info : UTF-8 Plain Text
Duration : 54 min 13 s
Bit rate : 45 b/s
Frame rate : 0.207 FPS
Count of elements : 674
Stream size : 18.2 KiB (0%)
Language : Italian
Default : No
Forced : No

Text #40
ID : 62
Format : UTF-8
Codec ID : S_TEXT/UTF8
Codec ID/Info : UTF-8 Plain Text
Duration : 56 min 28 s
Bit rate : 60 b/s
Frame rate : 0.274 FPS
Count of elements : 928
Stream size : 24.9 KiB (0%)
Title : SDH
Language : Italian
Default : No
Forced : No

Text #41
ID : 63
Format : UTF-8
Codec ID : S_TEXT/UTF8
Codec ID/Info : UTF-8 Plain Text
Duration : 55 min 18 s
Bit rate : 0 b/s
Frame rate : 0.002 FPS
Count of elements : 8
Stream size : 262 Bytes (0%)
Title : Forced
Language : Japanese
Default : No
Forced : Yes

Text #42
ID : 64
Format : UTF-8
Codec ID : S_TEXT/UTF8
Codec ID/Info : UTF-8 Plain Text
Duration : 56 min 14 s
Bit rate : 41 b/s
Frame rate : 0.195 FPS
Count of elements : 657
Stream size : 17.1 KiB (0%)
Language : Japanese
Default : No
Forced : No

Text #43
ID : 65
Format : UTF-8
Codec ID : S_TEXT/UTF8
Codec ID/Info : UTF-8 Plain Text
Duration : 54 min 13 s
Bit rate : 57 b/s
Frame rate : 0.224 FPS
Count of elements : 729
Stream size : 22.8 KiB (0%)
Language : Japanese
Default : No
Forced : No

Text #44
ID : 66
Format : UTF-8
Codec ID : S_TEXT/UTF8
Codec ID/Info : UTF-8 Plain Text
Duration : 56 min 24 s
Bit rate : 80 b/s
Frame rate : 0.274 FPS
Count of elements : 926
Stream size : 33.3 KiB (0%)
Title : SDH
Language : Japanese
Default : No
Forced : No

Text #45
ID : 67
Format : UTF-8
Codec ID : S_TEXT/UTF8
Codec ID/Info : UTF-8 Plain Text
Duration : 56 min 17 s
Bit rate : 50 b/s
Frame rate : 0.191 FPS
Count of elements : 644
Stream size : 20.8 KiB (0%)
Language : Korean
Default : No
Forced : No

Text #46
ID : 68
Format : UTF-8
Codec ID : S_TEXT/UTF8
Codec ID/Info : UTF-8 Plain Text
Duration : 54 min 13 s
Bit rate : 40 b/s
Frame rate : 0.193 FPS
Count of elements : 628
Stream size : 16.2 KiB (0%)
Language : Malay
Default : No
Forced : No

Text #47
ID : 69
Format : UTF-8
Codec ID : S_TEXT/UTF8
Codec ID/Info : UTF-8 Plain Text
Duration : 54 min 41 s
Bit rate : 39 b/s
Frame rate : 0.190 FPS
Count of elements : 623
Stream size : 15.7 KiB (0%)
Language : Norwegian Bokmal
Default : No
Forced : No

Text #48
ID : 70
Format : UTF-8
Codec ID : S_TEXT/UTF8
Codec ID/Info : UTF-8 Plain Text
Duration : 56 min 14 s
Bit rate : 35 b/s
Frame rate : 0.162 FPS
Count of elements : 548
Stream size : 14.7 KiB (0%)
Language : Dutch
Default : No
Forced : No

Text #49
ID : 71
Format : UTF-8
Codec ID : S_TEXT/UTF8
Codec ID/Info : UTF-8 Plain Text
Duration : 56 min 17 s
Bit rate : 37 b/s
Frame rate : 0.185 FPS
Count of elements : 624
Stream size : 15.4 KiB (0%)
Language : Polish
Default : No
Forced : No

Text #50
ID : 72
Format : UTF-8
Codec ID : S_TEXT/UTF8
Codec ID/Info : UTF-8 Plain Text
Duration : 56 min 24 s
Bit rate : 51 b/s
Frame rate : 0.254 FPS
Count of elements : 860
Stream size : 21.5 KiB (0%)
Title : SDH
Language : Polish
Default : No
Forced : No

Text #51
ID : 73
Format : UTF-8
Codec ID : S_TEXT/UTF8
Codec ID/Info : UTF-8 Plain Text
Duration : 56 min 17 s
Bit rate : 47 b/s
Frame rate : 0.188 FPS
Count of elements : 636
Stream size : 19.6 KiB (0%)
Language : Romanian
Default : No
Forced : No

Text #52
ID : 74
Format : UTF-8
Codec ID : S_TEXT/UTF8
Codec ID/Info : UTF-8 Plain Text
Duration : 51 min 59 s
Bit rate : 1 b/s
Frame rate : 0.003 FPS
Count of elements : 10
Stream size : 393 Bytes (0%)
Title : Forced
Language : Russian
Default : No
Forced : Yes

Text #53
ID : 75
Format : UTF-8
Codec ID : S_TEXT/UTF8
Codec ID/Info : UTF-8 Plain Text
Duration : 56 min 17 s
Bit rate : 67 b/s
Frame rate : 0.195 FPS
Count of elements : 660
Stream size : 27.8 KiB (0%)
Language : Russian
Default : No
Forced : No

Text #54
ID : 76
Format : UTF-8
Codec ID : S_TEXT/UTF8
Codec ID/Info : UTF-8 Plain Text
Duration : 56 min 29 s
Bit rate : 39 b/s
Frame rate : 0.185 FPS
Count of elements : 627
Stream size : 16.5 KiB (0%)
Language : Swedish
Default : No
Forced : No

Text #55
ID : 77
Format : UTF-8
Codec ID : S_TEXT/UTF8
Codec ID/Info : UTF-8 Plain Text
Duration : 55 min 54 s
Bit rate : 5 b/s
Frame rate : 0.012 FPS
Count of elements : 39
Stream size : 2.36 KiB (0%)
Title : Forced
Language : Tamil
Default : No
Forced : Yes

Text #56
ID : 78
Format : UTF-8
Codec ID : S_TEXT/UTF8
Codec ID/Info : UTF-8 Plain Text
Duration : 55 min 53 s
Bit rate : 2 b/s
Frame rate : 0.005 FPS
Count of elements : 16
Stream size : 1.00 KiB (0%)
Title : Forced
Language : Telugu
Default : No
Forced : Yes

Text #57
ID : 79
Format : UTF-8
Codec ID : S_TEXT/UTF8
Codec ID/Info : UTF-8 Plain Text
Duration : 51 min 59 s
Bit rate : 1 b/s
Frame rate : 0.004 FPS
Count of elements : 11
Stream size : 613 Bytes (0%)
Title : Forced
Language : Thai
Default : No
Forced : Yes

Text #58
ID : 80
Format : UTF-8
Codec ID : S_TEXT/UTF8
Codec ID/Info : UTF-8 Plain Text
Duration : 56 min 17 s
Bit rate : 114 b/s
Frame rate : 0.192 FPS
Count of elements : 648
Stream size : 47.3 KiB (0%)
Language : Thai
Default : No
Forced : No

Text #59
ID : 81
Format : UTF-8
Codec ID : S_TEXT/UTF8
Codec ID/Info : UTF-8 Plain Text
Duration : 54 min 13 s
Bit rate : 108 b/s
Frame rate : 0.212 FPS
Count of elements : 691
Stream size : 43.0 KiB (0%)
Language : Thai
Default : No
Forced : No

Text #60
ID : 82
Format : UTF-8
Codec ID : S_TEXT/UTF8
Codec ID/Info : UTF-8 Plain Text
Duration : 54 min 48 s
Bit rate : 131 b/s
Frame rate : 0.250 FPS
Count of elements : 821
Stream size : 52.8 KiB (0%)
Title : SDH
Language : Thai
Default : No
Forced : No

Text #61
ID : 83
Format : UTF-8
Codec ID : S_TEXT/UTF8
Codec ID/Info : UTF-8 Plain Text
Duration : 55 min 21 s
Bit rate : 0 b/s
Frame rate : 0.003 FPS
Count of elements : 9
Stream size : 218 Bytes (0%)
Title : Forced
Language : Turkish
Default : No
Forced : Yes

Text #62
ID : 84
Format : UTF-8
Codec ID : S_TEXT/UTF8
Codec ID/Info : UTF-8 Plain Text
Duration : 56 min 17 s
Bit rate : 42 b/s
Frame rate : 0.169 FPS
Count of elements : 571
Stream size : 17.4 KiB (0%)
Language : Turkish
Default : No
Forced : No

Text #63
ID : 85
Format : UTF-8
Codec ID : S_TEXT/UTF8
Codec ID/Info : UTF-8 Plain Text
Duration : 55 min 21 s
Bit rate : 0 b/s
Frame rate : 0.003 FPS
Count of elements : 11
Stream size : 324 Bytes (0%)
Title : Forced
Language : Ukrainian
Default : No
Forced : Yes

Text #64
ID : 86
Format : UTF-8
Codec ID : S_TEXT/UTF8
Codec ID/Info : UTF-8 Plain Text
Duration : 56 min 17 s
Bit rate : 65 b/s
Frame rate : 0.194 FPS
Count of elements : 656
Stream size : 27.0 KiB (0%)
Language : Ukrainian
Default : No
Forced : No

Text #65
ID : 87
Format : UTF-8
Codec ID : S_TEXT/UTF8
Codec ID/Info : UTF-8 Plain Text
Duration : 40 min 0 s
Bit rate : 0 b/s
Frame rate : 0.003 FPS
Count of elements : 8
Stream size : 169 Bytes (0%)
Title : Forced
Language : Vietnamese
Default : No
Forced : Yes

Text #66
ID : 88
Format : UTF-8
Codec ID : S_TEXT/UTF8
Codec ID/Info : UTF-8 Plain Text
Duration : 56 min 17 s
Bit rate : 61 b/s
Frame rate : 0.195 FPS
Count of elements : 659
Stream size : 25.2 KiB (0%)
Language : Vietnamese
Default : No
Forced : No

Text #67
ID : 89
Format : UTF-8
Codec ID : S_TEXT/UTF8
Codec ID/Info : UTF-8 Plain Text
Duration : 54 min 13 s
Bit rate : 70 b/s
Frame rate : 0.189 FPS
Count of elements : 615
Stream size : 28.0 KiB (0%)
Language : Vietnamese
Default : No
Forced : No

Text #68
ID : 90
Format : UTF-8
Codec ID : S_TEXT/UTF8
Codec ID/Info : UTF-8 Plain Text
Duration : 56 min 17 s
Bit rate : 47 b/s
Frame rate : 0.195 FPS
Count of elements : 658
Stream size : 19.6 KiB (0%)
Title : Simplified
Language : Chinese
Default : No
Forced : No

Text #69
ID : 91
Format : UTF-8
Codec ID : S_TEXT/UTF8
Codec ID/Info : UTF-8 Plain Text
Duration : 56 min 17 s
Bit rate : 45 b/s
Frame rate : 0.194 FPS
Count of elements : 656
Stream size : 18.9 KiB (0%)
Title : Traditional
Language : Chinese
Default : No
Forced : No

Menu
00:00:00.000 : en:Part 01
00:04:35.500 : en:Intro
00:05:24.250 : en:Part 02
00:55:00.450 : en:Credits





Stranger Things S02E05


Stranger Things S02E05


Stranger Things S02E05


Stranger Things S02E05


Stranger Things S02E05

All episodes