Index
# A B C D E F G H I J K L M N O P Q R S T U V W X Y Z
Tags
Language
Tags
July 2024
Su Mo Tu We Th Fr Sa
30 1 2 3 4 5 6
7 8 9 10 11 12 13
14 15 16 17 18 19 20
21 22 23 24 25 26 27
28 29 30 31 1 2 3

Featured TV Shows


Stranger Things S04E06

Posted By: Tavaz
1080p (FullHD) / WEB-DL IMDb
Stranger Things S04E06

Stranger Things S04E06
WEB-DL | MKV | 1920x1080 | Українська / Čeština / ภาษาไทย / Türkçe / tiếng Việt / हिन्दी / Deutsch / Français / Polski / Italiano / English / Bahasa Indonesia / Magyar / 日本語 / Español / Português | H264 @ 4718 kbps | E-AC-3 @ 768.0 kbps | 1 h 15 min | 9.31 GiB
Subtitles: Bokmål, Română, Українська, Türkçe, Nederlands, Svenska, Magyar, Español, Português, العربية, 한국어, Deutsch, Ελληνικά, Italiano, English, Bahasa Indonesia, Suomi, Hrvatski, עברית, ภาษาไทย, हिन्दी, 中文, Dansk, Русский, Čeština, tiếng Việt, Français, Polski, 日本語
Genre: Drama, Mystery


When a young boy vanishes, a small town uncovers a mystery involving secret experiments, terrifying supernatural forces, and one strange little girl.

Stranger.Things.S04E06.Capitulo.seis.Mergulho.1080p.NF.WEB-DL.DDP5.1.Atmos.H.264.MULTi-OLYMPUS.part1.rar (4.9 GB)
Stranger.Things.S04E06.Capitulo.seis.Mergulho.1080p.NF.WEB-DL.DDP5.1.Atmos.H.264.MULTi-OLYMPUS.part2.rar (4.5 GB)



General
Unique ID : 265559096873436054066467073549893269309 (0xC7C8D258C9BDA6D1408621A0BAE6773D)
Complete name : ./Stranger.Things.S04E06.Capitulo.seis.Mergulho.1080p.NF.WEB-DL.DDP5.1.Atmos.H.264.MULTi-OLYMPUS.mkv
Format : Matroska
Format version : Version 4
File size : 9.31 GiB
Duration : 1 h 15 min
Overall bit rate mode : Variable
Overall bit rate : 17.7 Mb/s
Encoded date : UTC 2024-05-15 04:58:20
Writing application : mkvmerge v84.0 ('Sleeper') 64-bit
Writing library : libebml v1.4.5 + libmatroska v1.7.1

Video
ID : 1
Format : AVC
Format/Info : Advanced Video Codec
Format profile : Main@L4
Format settings : CABAC / 3 Ref Frames
Format settings, CABAC : Yes
Format settings, Reference frames : 3 frames
Codec ID : V_MPEG4/ISO/AVC
Duration : 1 h 15 min
Bit rate mode : Variable
Bit rate : 4 719 kb/s
Nominal bit rate : 5 000 kb/s
Maximum bit rate : 7 500 kb/s
Width : 1 920 pixels
Height : 1 080 pixels
Display aspect ratio : 16:9
Frame rate mode : Constant
Frame rate : 23.976 (24000/1001) FPS
Color space : YUV
Chroma subsampling : 4:2:0
Bit depth : 8 bits
Scan type : Progressive
Bits/(Pixel*Frame) : 0.095
Stream size : 2.49 GiB (27%)
Writing library : x264 core 148 r2727 7d026e8
Encoding settings : cabac=1 / ref=3 / deblock=1:0:0 / analyse=0x1:0x111 / me=umh / subme=10 / psy=1 / psy_rd=1.00:0.00 / mixed_ref=1 / me_range=24 / chroma_me=1 / trellis=2 / 8x8dct=0 / cqm=0 / deadzone=21,11 / fast_pskip=1 / chroma_qp_offset=-2 / threads=6 / lookahead_threads=1 / sliced_threads=0 / nr=0 / decimate=1 / interlaced=0 / bluray_compat=0 / stitchable=1 / constrained_intra=0 / bframes=2 / b_pyramid=0 / b_adapt=2 / b_bias=0 / direct=3 / weightb=1 / open_gop=0 / weightp=2 / keyint=240 / keyint_min=121 / scenecut=0 / intra_refresh=0 / rc_lookahead=48 / rc=2pass / mbtree=1 / bitrate=5000 / ratetol=1.0 / qcomp=0.50 / qpmin=6 / qpmax=51 / qpstep=4 / cplxblur=20.0 / qblur=0.5 / vbv_maxrate=7500 / vbv_bufsize=10000 / nal_hrd=vbr / filler=0 / ip_ratio=1.40 / aq=1:1.00
Default : Yes
Forced : No

Audio #1
ID : 2
Format : E-AC-3 JOC
Format/Info : Enhanced AC-3 with Joint Object Coding
Commercial name : Dolby Digital Plus with Dolby Atmos
Codec ID : A_EAC3
Duration : 1 h 15 min
Bit rate mode : Constant
Bit rate : 768 kb/s
Channel(s) : 6 channels
Channel layout : L R C LFE Ls Rs
Sampling rate : 48.0 kHz
Frame rate : 31.250 FPS (1536 SPF)
Compression mode : Lossy
Stream size : 415 MiB (4%)
Language : English
Service kind : Complete Main
Default : Yes
Forced : No
Complexity index : 16
Number of dynamic objects : 15
Bed channel count : 1 channel
Bed channel configuration : LFE

Audio #2
ID : 3
Format : E-AC-3
Format/Info : Enhanced AC-3
Commercial name : Dolby Digital Plus
Codec ID : A_EAC3
Duration : 1 h 15 min
Bit rate mode : Constant
Bit rate : 640 kb/s
Channel(s) : 6 channels
Channel layout : L R C LFE Ls Rs
Sampling rate : 48.0 kHz
Frame rate : 31.250 FPS (1536 SPF)
Compression mode : Lossy
Stream size : 346 MiB (4%)
Title : Brazilian
Language : Portuguese
Service kind : Complete Main
Default : No
Forced : No

Audio #3
ID : 4
Format : E-AC-3
Format/Info : Enhanced AC-3
Commercial name : Dolby Digital Plus
Codec ID : A_EAC3
Duration : 1 h 15 min
Bit rate mode : Constant
Bit rate : 640 kb/s
Channel(s) : 6 channels
Channel layout : L R C LFE Ls Rs
Sampling rate : 48.0 kHz
Frame rate : 31.250 FPS (1536 SPF)
Compression mode : Lossy
Stream size : 346 MiB (4%)
Language : Czech
Service kind : Complete Main
Default : No
Forced : No

Audio #4
ID : 5
Format : E-AC-3
Format/Info : Enhanced AC-3
Commercial name : Dolby Digital Plus
Codec ID : A_EAC3
Duration : 1 h 15 min
Bit rate mode : Constant
Bit rate : 640 kb/s
Channel(s) : 6 channels
Channel layout : L R C LFE Ls Rs
Sampling rate : 48.0 kHz
Frame rate : 31.250 FPS (1536 SPF)
Compression mode : Lossy
Stream size : 346 MiB (4%)
Language : German
Service kind : Complete Main
Default : No
Forced : No

Audio #5
ID : 6
Format : E-AC-3
Format/Info : Enhanced AC-3
Commercial name : Dolby Digital Plus
Codec ID : A_EAC3
Duration : 1 h 15 min
Bit rate mode : Constant
Bit rate : 640 kb/s
Channel(s) : 6 channels
Channel layout : L R C LFE Ls Rs
Sampling rate : 48.0 kHz
Frame rate : 31.250 FPS (1536 SPF)
Compression mode : Lossy
Stream size : 346 MiB (4%)
Title : Latin American
Language : Spanish
Service kind : Complete Main
Default : No
Forced : No

Audio #6
ID : 7
Format : E-AC-3
Format/Info : Enhanced AC-3
Commercial name : Dolby Digital Plus
Codec ID : A_EAC3
Duration : 1 h 15 min
Bit rate mode : Constant
Bit rate : 640 kb/s
Channel(s) : 6 channels
Channel layout : L R C LFE Ls Rs
Sampling rate : 48.0 kHz
Frame rate : 31.250 FPS (1536 SPF)
Compression mode : Lossy
Stream size : 346 MiB (4%)
Title : European
Language : Spanish
Service kind : Complete Main
Default : No
Forced : No

Audio #7
ID : 8
Format : E-AC-3
Format/Info : Enhanced AC-3
Commercial name : Dolby Digital Plus
Codec ID : A_EAC3
Duration : 1 h 15 min
Bit rate mode : Constant
Bit rate : 640 kb/s
Channel(s) : 6 channels
Channel layout : L R C LFE Ls Rs
Sampling rate : 48.0 kHz
Frame rate : 31.250 FPS (1536 SPF)
Compression mode : Lossy
Stream size : 346 MiB (4%)
Language : fil
Service kind : Complete Main
Default : No
Forced : No

Audio #8
ID : 9
Format : E-AC-3
Format/Info : Enhanced AC-3
Commercial name : Dolby Digital Plus
Codec ID : A_EAC3
Duration : 1 h 15 min
Bit rate mode : Constant
Bit rate : 640 kb/s
Channel(s) : 6 channels
Channel layout : L R C LFE Ls Rs
Sampling rate : 48.0 kHz
Frame rate : 31.250 FPS (1536 SPF)
Compression mode : Lossy
Stream size : 346 MiB (4%)
Language : French
Service kind : Complete Main
Default : No
Forced : No

Audio #9
ID : 10
Format : E-AC-3
Format/Info : Enhanced AC-3
Commercial name : Dolby Digital Plus
Codec ID : A_EAC3
Duration : 1 h 15 min
Bit rate mode : Constant
Bit rate : 640 kb/s
Channel(s) : 6 channels
Channel layout : L R C LFE Ls Rs
Sampling rate : 48.0 kHz
Frame rate : 31.250 FPS (1536 SPF)
Compression mode : Lossy
Stream size : 346 MiB (4%)
Language : Hindi
Service kind : Complete Main
Default : No
Forced : No

Audio #10
ID : 11
Format : E-AC-3
Format/Info : Enhanced AC-3
Commercial name : Dolby Digital Plus
Codec ID : A_EAC3
Duration : 1 h 15 min
Bit rate mode : Constant
Bit rate : 640 kb/s
Channel(s) : 6 channels
Channel layout : L R C LFE Ls Rs
Sampling rate : 48.0 kHz
Frame rate : 31.250 FPS (1536 SPF)
Compression mode : Lossy
Stream size : 346 MiB (4%)
Language : Hungarian
Service kind : Complete Main
Default : No
Forced : No

Audio #11
ID : 12
Format : E-AC-3
Format/Info : Enhanced AC-3
Commercial name : Dolby Digital Plus
Codec ID : A_EAC3
Duration : 1 h 15 min
Bit rate mode : Constant
Bit rate : 640 kb/s
Channel(s) : 6 channels
Channel layout : L R C LFE Ls Rs
Sampling rate : 48.0 kHz
Frame rate : 31.250 FPS (1536 SPF)
Compression mode : Lossy
Stream size : 346 MiB (4%)
Language : Indonesian
Service kind : Complete Main
Default : No
Forced : No

Audio #12
ID : 13
Format : E-AC-3
Format/Info : Enhanced AC-3
Commercial name : Dolby Digital Plus
Codec ID : A_EAC3
Duration : 1 h 15 min
Bit rate mode : Constant
Bit rate : 640 kb/s
Channel(s) : 6 channels
Channel layout : L R C LFE Ls Rs
Sampling rate : 48.0 kHz
Frame rate : 31.250 FPS (1536 SPF)
Compression mode : Lossy
Stream size : 346 MiB (4%)
Language : Italian
Service kind : Complete Main
Default : No
Forced : No

Audio #13
ID : 14
Format : E-AC-3
Format/Info : Enhanced AC-3
Commercial name : Dolby Digital Plus
Codec ID : A_EAC3
Duration : 1 h 15 min
Bit rate mode : Constant
Bit rate : 640 kb/s
Channel(s) : 6 channels
Channel layout : L R C LFE Ls Rs
Sampling rate : 48.0 kHz
Frame rate : 31.250 FPS (1536 SPF)
Compression mode : Lossy
Stream size : 346 MiB (4%)
Language : Japanese
Service kind : Complete Main
Default : No
Forced : No

Audio #14
ID : 15
Format : E-AC-3
Format/Info : Enhanced AC-3
Commercial name : Dolby Digital Plus
Codec ID : A_EAC3
Duration : 1 h 15 min
Bit rate mode : Constant
Bit rate : 640 kb/s
Channel(s) : 6 channels
Channel layout : L R C LFE Ls Rs
Sampling rate : 48.0 kHz
Frame rate : 31.250 FPS (1536 SPF)
Compression mode : Lossy
Stream size : 346 MiB (4%)
Language : Polish
Service kind : Complete Main
Default : No
Forced : No

Audio #15
ID : 16
Format : E-AC-3
Format/Info : Enhanced AC-3
Commercial name : Dolby Digital Plus
Codec ID : A_EAC3
Duration : 1 h 15 min
Bit rate mode : Constant
Bit rate : 640 kb/s
Channel(s) : 6 channels
Channel layout : L R C LFE Ls Rs
Sampling rate : 48.0 kHz
Frame rate : 31.250 FPS (1536 SPF)
Compression mode : Lossy
Stream size : 346 MiB (4%)
Language : Tamil
Service kind : Complete Main
Default : No
Forced : No

Audio #16
ID : 17
Format : E-AC-3
Format/Info : Enhanced AC-3
Commercial name : Dolby Digital Plus
Codec ID : A_EAC3
Duration : 1 h 15 min
Bit rate mode : Constant
Bit rate : 640 kb/s
Channel(s) : 6 channels
Channel layout : L R C LFE Ls Rs
Sampling rate : 48.0 kHz
Frame rate : 31.250 FPS (1536 SPF)
Compression mode : Lossy
Stream size : 346 MiB (4%)
Language : Telugu
Service kind : Complete Main
Default : No
Forced : No

Audio #17
ID : 18
Format : E-AC-3
Format/Info : Enhanced AC-3
Commercial name : Dolby Digital Plus
Codec ID : A_EAC3
Duration : 1 h 15 min
Bit rate mode : Constant
Bit rate : 640 kb/s
Channel(s) : 6 channels
Channel layout : L R C LFE Ls Rs
Sampling rate : 48.0 kHz
Frame rate : 31.250 FPS (1536 SPF)
Compression mode : Lossy
Stream size : 346 MiB (4%)
Language : Thai
Service kind : Complete Main
Default : No
Forced : No

Audio #18
ID : 19
Format : E-AC-3
Format/Info : Enhanced AC-3
Commercial name : Dolby Digital Plus
Codec ID : A_EAC3
Duration : 1 h 15 min
Bit rate mode : Constant
Bit rate : 640 kb/s
Channel(s) : 6 channels
Channel layout : L R C LFE Ls Rs
Sampling rate : 48.0 kHz
Frame rate : 31.250 FPS (1536 SPF)
Compression mode : Lossy
Stream size : 346 MiB (4%)
Language : Turkish
Service kind : Complete Main
Default : No
Forced : No

Audio #19
ID : 20
Format : E-AC-3
Format/Info : Enhanced AC-3
Commercial name : Dolby Digital Plus
Codec ID : A_EAC3
Duration : 1 h 15 min
Bit rate mode : Constant
Bit rate : 640 kb/s
Channel(s) : 6 channels
Channel layout : L R C LFE Ls Rs
Sampling rate : 48.0 kHz
Frame rate : 31.250 FPS (1536 SPF)
Compression mode : Lossy
Stream size : 346 MiB (4%)
Language : Ukrainian
Service kind : Complete Main
Default : No
Forced : No

Audio #20
ID : 21
Format : E-AC-3
Format/Info : Enhanced AC-3
Commercial name : Dolby Digital Plus
Codec ID : A_EAC3
Duration : 1 h 15 min
Bit rate mode : Constant
Bit rate : 640 kb/s
Channel(s) : 6 channels
Channel layout : L R C LFE Ls Rs
Sampling rate : 48.0 kHz
Frame rate : 31.250 FPS (1536 SPF)
Compression mode : Lossy
Stream size : 346 MiB (4%)
Language : Vietnamese
Service kind : Complete Main
Default : No
Forced : No

Text #1
ID : 22
Format : UTF-8
Codec ID : S_TEXT/UTF8
Codec ID/Info : UTF-8 Plain Text
Duration : 1 h 9 min
Bit rate : 2 b/s
Frame rate : 0.014 FPS
Count of elements : 59
Stream size : 1.35 KiB (0%)
Title : Brazilian (Forced)
Language : Portuguese
Default : No
Forced : Yes

Text #2
ID : 23
Format : UTF-8
Codec ID : S_TEXT/UTF8
Codec ID/Info : UTF-8 Plain Text
Duration : 1 h 8 min
Bit rate : 62 b/s
Frame rate : 0.242 FPS
Count of elements : 990
Stream size : 31.2 KiB (0%)
Title : Brazilian
Language : Portuguese
Default : No
Forced : No

Text #3
ID : 24
Format : UTF-8
Codec ID : S_TEXT/UTF8
Codec ID/Info : UTF-8 Plain Text
Duration : 1 h 12 min
Bit rate : 53 b/s
Frame rate : 0.229 FPS
Count of elements : 993
Stream size : 28.5 KiB (0%)
Title : Brazilian
Language : Portuguese
Default : No
Forced : No

Text #4
ID : 25
Format : UTF-8
Codec ID : S_TEXT/UTF8
Codec ID/Info : UTF-8 Plain Text
Duration : 1 h 10 min
Bit rate : 76 b/s
Frame rate : 0.296 FPS
Count of elements : 1254
Stream size : 39.2 KiB (0%)
Title : Brazilian (SDH)
Language : Portuguese
Default : No
Forced : No

Text #5
ID : 26
Format : UTF-8
Codec ID : S_TEXT/UTF8
Codec ID/Info : UTF-8 Plain Text
Duration : 1 h 8 min
Bit rate : 57 b/s
Frame rate : 0.251 FPS
Count of elements : 1027
Stream size : 29.0 KiB (0%)
Title : European
Language : Portuguese
Default : No
Forced : No

Text #6
ID : 27
Format : UTF-8
Codec ID : S_TEXT/UTF8
Codec ID/Info : UTF-8 Plain Text
Duration : 1 h 12 min
Bit rate : 90 b/s
Frame rate : 0.238 FPS
Count of elements : 1029
Stream size : 48.0 KiB (0%)
Language : Arabic
Default : No
Forced : No

Text #7
ID : 28
Format : UTF-8
Codec ID : S_TEXT/UTF8
Codec ID/Info : UTF-8 Plain Text
Duration : 1 h 9 min
Bit rate : 2 b/s
Frame rate : 0.014 FPS
Count of elements : 60
Stream size : 1.38 KiB (0%)
Title : Forced
Language : Czech
Default : No
Forced : Yes

Text #8
ID : 29
Format : UTF-8
Codec ID : S_TEXT/UTF8
Codec ID/Info : UTF-8 Plain Text
Duration : 1 h 12 min
Bit rate : 51 b/s
Frame rate : 0.231 FPS
Count of elements : 1000
Stream size : 27.4 KiB (0%)
Language : Czech
Default : No
Forced : No

Text #9
ID : 30
Format : UTF-8
Codec ID : S_TEXT/UTF8
Codec ID/Info : UTF-8 Plain Text
Duration : 1 h 12 min
Bit rate : 51 b/s
Frame rate : 0.225 FPS
Count of elements : 975
Stream size : 27.3 KiB (0%)
Language : Danish
Default : No
Forced : No

Text #10
ID : 31
Format : UTF-8
Codec ID : S_TEXT/UTF8
Codec ID/Info : UTF-8 Plain Text
Duration : 1 h 9 min
Bit rate : 2 b/s
Frame rate : 0.014 FPS
Count of elements : 60
Stream size : 1.36 KiB (0%)
Title : Forced
Language : German
Default : No
Forced : Yes

Text #11
ID : 32
Format : UTF-8
Codec ID : S_TEXT/UTF8
Codec ID/Info : UTF-8 Plain Text
Duration : 1 h 12 min
Bit rate : 53 b/s
Frame rate : 0.230 FPS
Count of elements : 997
Stream size : 28.1 KiB (0%)
Language : German
Default : No
Forced : No

Text #12
ID : 33
Format : UTF-8
Codec ID : S_TEXT/UTF8
Codec ID/Info : UTF-8 Plain Text
Duration : 1 h 9 min
Bit rate : 65 b/s
Frame rate : 0.238 FPS
Count of elements : 993
Stream size : 33.1 KiB (0%)
Language : German
Default : No
Forced : No

Text #13
ID : 34
Format : UTF-8
Codec ID : S_TEXT/UTF8
Codec ID/Info : UTF-8 Plain Text
Duration : 1 h 12 min
Bit rate : 77 b/s
Frame rate : 0.289 FPS
Count of elements : 1260
Stream size : 41.3 KiB (0%)
Title : SDH
Language : German
Default : No
Forced : No

Text #14
ID : 35
Format : UTF-8
Codec ID : S_TEXT/UTF8
Codec ID/Info : UTF-8 Plain Text
Duration : 1 h 12 min
Bit rate : 89 b/s
Frame rate : 0.236 FPS
Count of elements : 1021
Stream size : 47.2 KiB (0%)
Language : Greek
Default : No
Forced : No

Text #15
ID : 36
Format : UTF-8
Codec ID : S_TEXT/UTF8
Codec ID/Info : UTF-8 Plain Text
Duration : 34 min 7 s
Bit rate : 4 b/s
Frame rate : 0.025 FPS
Count of elements : 52
Stream size : 1.17 KiB (0%)
Title : Forced
Language : English
Default : Yes
Forced : Yes

Text #16
ID : 37
Format : UTF-8
Codec ID : S_TEXT/UTF8
Codec ID/Info : UTF-8 Plain Text
Duration : 1 h 12 min
Bit rate : 71 b/s
Frame rate : 0.302 FPS
Count of elements : 1315
Stream size : 38.3 KiB (0%)
Title : SDH
Language : English
Default : No
Forced : No

Text #17
ID : 38
Format : UTF-8
Codec ID : S_TEXT/UTF8
Codec ID/Info : UTF-8 Plain Text
Duration : 1 h 9 min
Bit rate : 2 b/s
Frame rate : 0.015 FPS
Count of elements : 63
Stream size : 1.43 KiB (0%)
Title : Latin American (Forced)
Language : Spanish
Default : No
Forced : Yes

Text #18
ID : 39
Format : UTF-8
Codec ID : S_TEXT/UTF8
Codec ID/Info : UTF-8 Plain Text
Duration : 1 h 8 min
Bit rate : 59 b/s
Frame rate : 0.254 FPS
Count of elements : 1041
Stream size : 29.8 KiB (0%)
Title : Latin American
Language : Spanish
Default : No
Forced : No

Text #19
ID : 40
Format : UTF-8
Codec ID : S_TEXT/UTF8
Codec ID/Info : UTF-8 Plain Text
Duration : 1 h 12 min
Bit rate : 53 b/s
Frame rate : 0.232 FPS
Count of elements : 1005
Stream size : 28.2 KiB (0%)
Title : Latin American
Language : Spanish
Default : No
Forced : No

Text #20
ID : 41
Format : UTF-8
Codec ID : S_TEXT/UTF8
Codec ID/Info : UTF-8 Plain Text
Duration : 1 h 9 min
Bit rate : 64 b/s
Frame rate : 0.279 FPS
Count of elements : 1173
Stream size : 33.1 KiB (0%)
Title : Latin American (SDH)
Language : Spanish
Default : No
Forced : No

Text #21
ID : 42
Format : UTF-8
Codec ID : S_TEXT/UTF8
Codec ID/Info : UTF-8 Plain Text
Duration : 1 h 9 min
Bit rate : 2 b/s
Frame rate : 0.015 FPS
Count of elements : 61
Stream size : 1.34 KiB (0%)
Title : European (Forced)
Language : Spanish
Default : No
Forced : Yes

Text #22
ID : 43
Format : UTF-8
Codec ID : S_TEXT/UTF8
Codec ID/Info : UTF-8 Plain Text
Duration : 1 h 12 min
Bit rate : 50 b/s
Frame rate : 0.234 FPS
Count of elements : 1014
Stream size : 26.8 KiB (0%)
Title : European
Language : Spanish
Default : No
Forced : No

Text #23
ID : 44
Format : UTF-8
Codec ID : S_TEXT/UTF8
Codec ID/Info : UTF-8 Plain Text
Duration : 1 h 8 min
Bit rate : 60 b/s
Frame rate : 0.249 FPS
Count of elements : 1019
Stream size : 30.0 KiB (0%)
Title : European
Language : Spanish
Default : No
Forced : No

Text #24
ID : 45
Format : UTF-8
Codec ID : S_TEXT/UTF8
Codec ID/Info : UTF-8 Plain Text
Duration : 1 h 12 min
Bit rate : 75 b/s
Frame rate : 0.308 FPS
Count of elements : 1344
Stream size : 40.0 KiB (0%)
Title : European (SDH)
Language : Spanish
Default : No
Forced : No

Text #25
ID : 46
Format : UTF-8
Codec ID : S_TEXT/UTF8
Codec ID/Info : UTF-8 Plain Text
Duration : 1 h 12 min
Bit rate : 49 b/s
Frame rate : 0.204 FPS
Count of elements : 885
Stream size : 26.1 KiB (0%)
Language : Finnish
Default : No
Forced : No

Text #26
ID : 47
Format : UTF-8
Codec ID : S_TEXT/UTF8
Codec ID/Info : UTF-8 Plain Text
Duration : 1 h 9 min
Bit rate : 2 b/s
Frame rate : 0.012 FPS
Count of elements : 48
Stream size : 1.34 KiB (0%)
Title : Forced
Language : fil
Default : No
Forced : Yes

Text #27
ID : 48
Format : UTF-8
Codec ID : S_TEXT/UTF8
Codec ID/Info : UTF-8 Plain Text
Duration : 1 h 12 min
Bit rate : 52 b/s
Frame rate : 0.211 FPS
Count of elements : 913
Stream size : 28.0 KiB (0%)
Language : fil
Default : No
Forced : No

Text #28
ID : 49
Format : UTF-8
Codec ID : S_TEXT/UTF8
Codec ID/Info : UTF-8 Plain Text
Duration : 1 h 9 min
Bit rate : 2 b/s
Frame rate : 0.015 FPS
Count of elements : 61
Stream size : 1.38 KiB (0%)
Title : Forced
Language : French
Default : No
Forced : Yes

Text #29
ID : 50
Format : UTF-8
Codec ID : S_TEXT/UTF8
Codec ID/Info : UTF-8 Plain Text
Duration : 1 h 12 min
Bit rate : 50 b/s
Frame rate : 0.228 FPS
Count of elements : 988
Stream size : 26.9 KiB (0%)
Language : French
Default : No
Forced : No

Text #30
ID : 51
Format : UTF-8
Codec ID : S_TEXT/UTF8
Codec ID/Info : UTF-8 Plain Text
Duration : 1 h 8 min
Bit rate : 67 b/s
Frame rate : 0.246 FPS
Count of elements : 1008
Stream size : 33.8 KiB (0%)
Language : French
Default : No
Forced : No

Text #31
ID : 52
Format : UTF-8
Codec ID : S_TEXT/UTF8
Codec ID/Info : UTF-8 Plain Text
Duration : 1 h 10 min
Bit rate : 78 b/s
Frame rate : 0.293 FPS
Count of elements : 1240
Stream size : 40.7 KiB (0%)
Title : SDH
Language : French
Default : No
Forced : No

Text #32
ID : 53
Format : UTF-8
Codec ID : S_TEXT/UTF8
Codec ID/Info : UTF-8 Plain Text
Duration : 1 h 12 min
Bit rate : 87 b/s
Frame rate : 0.238 FPS
Count of elements : 1029
Stream size : 46.1 KiB (0%)
Language : Hebrew
Default : No
Forced : No

Text #33
ID : 54
Format : UTF-8
Codec ID : S_TEXT/UTF8
Codec ID/Info : UTF-8 Plain Text
Duration : 1 h 0 min
Bit rate : 4 b/s
Frame rate : 0.014 FPS
Count of elements : 51
Stream size : 1.91 KiB (0%)
Title : Latin (Forced)
Language : Hindi
Default : No
Forced : Yes

Text #34
ID : 55
Format : UTF-8
Codec ID : S_TEXT/UTF8
Codec ID/Info : UTF-8 Plain Text
Duration : 1 h 12 min
Bit rate : 50 b/s
Frame rate : 0.230 FPS
Count of elements : 997
Stream size : 26.7 KiB (0%)
Language : Croatian
Default : No
Forced : No

Text #35
ID : 56
Format : UTF-8
Codec ID : S_TEXT/UTF8
Codec ID/Info : UTF-8 Plain Text
Duration : 1 h 9 min
Bit rate : 2 b/s
Frame rate : 0.013 FPS
Count of elements : 54
Stream size : 1.31 KiB (0%)
Title : Forced
Language : Hungarian
Default : No
Forced : Yes

Text #36
ID : 57
Format : UTF-8
Codec ID : S_TEXT/UTF8
Codec ID/Info : UTF-8 Plain Text
Duration : 1 h 12 min
Bit rate : 50 b/s
Frame rate : 0.210 FPS
Count of elements : 909
Stream size : 26.7 KiB (0%)
Language : Hungarian
Default : No
Forced : No

Text #37
ID : 58
Format : UTF-8
Codec ID : S_TEXT/UTF8
Codec ID/Info : UTF-8 Plain Text
Duration : 1 h 9 min
Bit rate : 2 b/s
Frame rate : 0.015 FPS
Count of elements : 63
Stream size : 1.34 KiB (0%)
Title : Forced
Language : Indonesian
Default : No
Forced : Yes

Text #38
ID : 59
Format : UTF-8
Codec ID : S_TEXT/UTF8
Codec ID/Info : UTF-8 Plain Text
Duration : 1 h 12 min
Bit rate : 51 b/s
Frame rate : 0.238 FPS
Count of elements : 1029
Stream size : 27.4 KiB (0%)
Language : Indonesian
Default : No
Forced : No

Text #39
ID : 60
Format : UTF-8
Codec ID : S_TEXT/UTF8
Codec ID/Info : UTF-8 Plain Text
Duration : 1 h 9 min
Bit rate : 2 b/s
Frame rate : 0.014 FPS
Count of elements : 60
Stream size : 1.29 KiB (0%)
Title : Forced
Language : Italian
Default : No
Forced : Yes

Text #40
ID : 61
Format : UTF-8
Codec ID : S_TEXT/UTF8
Codec ID/Info : UTF-8 Plain Text
Duration : 1 h 12 min
Bit rate : 51 b/s
Frame rate : 0.236 FPS
Count of elements : 1022
Stream size : 27.0 KiB (0%)
Language : Italian
Default : No
Forced : No

Text #41
ID : 62
Format : UTF-8
Codec ID : S_TEXT/UTF8
Codec ID/Info : UTF-8 Plain Text
Duration : 1 h 8 min
Bit rate : 61 b/s
Frame rate : 0.242 FPS
Count of elements : 993
Stream size : 30.6 KiB (0%)
Language : Italian
Default : No
Forced : No

Text #42
ID : 63
Format : UTF-8
Codec ID : S_TEXT/UTF8
Codec ID/Info : UTF-8 Plain Text
Duration : 1 h 12 min
Bit rate : 74 b/s
Frame rate : 0.290 FPS
Count of elements : 1262
Stream size : 39.5 KiB (0%)
Title : SDH
Language : Italian
Default : No
Forced : No

Text #43
ID : 64
Format : UTF-8
Codec ID : S_TEXT/UTF8
Codec ID/Info : UTF-8 Plain Text
Duration : 1 h 9 min
Bit rate : 3 b/s
Frame rate : 0.012 FPS
Count of elements : 52
Stream size : 1.68 KiB (0%)
Title : Forced
Language : Japanese
Default : No
Forced : Yes

Text #44
ID : 65
Format : UTF-8
Codec ID : S_TEXT/UTF8
Codec ID/Info : UTF-8 Plain Text
Duration : 1 h 12 min
Bit rate : 55 b/s
Frame rate : 0.229 FPS
Count of elements : 991
Stream size : 29.5 KiB (0%)
Language : Japanese
Default : No
Forced : No

Text #45
ID : 66
Format : UTF-8
Codec ID : S_TEXT/UTF8
Codec ID/Info : UTF-8 Plain Text
Duration : 1 h 12 min
Bit rate : 51 b/s
Frame rate : 0.245 FPS
Count of elements : 1062
Stream size : 27.1 KiB (0%)
Language : Japanese
Default : No
Forced : No

Text #46
ID : 67
Format : UTF-8
Codec ID : S_TEXT/UTF8
Codec ID/Info : UTF-8 Plain Text
Duration : 1 h 12 min
Bit rate : 64 b/s
Frame rate : 0.273 FPS
Count of elements : 1191
Stream size : 34.4 KiB (0%)
Title : SDH
Language : Japanese
Default : No
Forced : No

Text #47
ID : 68
Format : UTF-8
Codec ID : S_TEXT/UTF8
Codec ID/Info : UTF-8 Plain Text
Duration : 1 h 12 min
Bit rate : 65 b/s
Frame rate : 0.232 FPS
Count of elements : 1007
Stream size : 34.5 KiB (0%)
Language : Korean
Default : No
Forced : No

Text #48
ID : 69
Format : UTF-8
Codec ID : S_TEXT/UTF8
Codec ID/Info : UTF-8 Plain Text
Duration : 1 h 12 min
Bit rate : 51 b/s
Frame rate : 0.235 FPS
Count of elements : 1018
Stream size : 27.2 KiB (0%)
Language : Malay
Default : No
Forced : No

Text #49
ID : 70
Format : UTF-8
Codec ID : S_TEXT/UTF8
Codec ID/Info : UTF-8 Plain Text
Duration : 1 h 12 min
Bit rate : 50 b/s
Frame rate : 0.221 FPS
Count of elements : 956
Stream size : 26.5 KiB (0%)
Language : Norwegian Bokmal
Default : No
Forced : No

Text #50
ID : 71
Format : UTF-8
Codec ID : S_TEXT/UTF8
Codec ID/Info : UTF-8 Plain Text
Duration : 1 h 12 min
Bit rate : 49 b/s
Frame rate : 0.202 FPS
Count of elements : 876
Stream size : 25.9 KiB (0%)
Language : Dutch
Default : No
Forced : No

Text #51
ID : 72
Format : UTF-8
Codec ID : S_TEXT/UTF8
Codec ID/Info : UTF-8 Plain Text
Duration : 1 h 1 min
Bit rate : 0 b/s
Frame rate : 0.001 FPS
Count of elements : 5
Stream size : 117 Bytes (0%)
Title : Forced
Language : Polish
Default : No
Forced : Yes

Text #52
ID : 73
Format : UTF-8
Codec ID : S_TEXT/UTF8
Codec ID/Info : UTF-8 Plain Text
Duration : 1 h 12 min
Bit rate : 52 b/s
Frame rate : 0.232 FPS
Count of elements : 1005
Stream size : 27.9 KiB (0%)
Language : Polish
Default : No
Forced : No

Text #53
ID : 74
Format : UTF-8
Codec ID : S_TEXT/UTF8
Codec ID/Info : UTF-8 Plain Text
Duration : 1 h 10 min
Bit rate : 66 b/s
Frame rate : 0.310 FPS
Count of elements : 1314
Stream size : 34.2 KiB (0%)
Title : SDH
Language : Polish
Default : No
Forced : No

Text #54
ID : 75
Format : UTF-8
Codec ID : S_TEXT/UTF8
Codec ID/Info : UTF-8 Plain Text
Duration : 1 h 12 min
Bit rate : 58 b/s
Frame rate : 0.217 FPS
Count of elements : 940
Stream size : 31.2 KiB (0%)
Language : Romanian
Default : No
Forced : No

Text #55
ID : 76
Format : UTF-8
Codec ID : S_TEXT/UTF8
Codec ID/Info : UTF-8 Plain Text
Duration : 1 h 12 min
Bit rate : 84 b/s
Frame rate : 0.216 FPS
Count of elements : 935
Stream size : 44.6 KiB (0%)
Language : Russian
Default : No
Forced : No

Text #56
ID : 77
Format : UTF-8
Codec ID : S_TEXT/UTF8
Codec ID/Info : UTF-8 Plain Text
Duration : 1 h 12 min
Bit rate : 52 b/s
Frame rate : 0.199 FPS
Count of elements : 861
Stream size : 27.9 KiB (0%)
Language : Swedish
Default : No
Forced : No

Text #57
ID : 78
Format : UTF-8
Codec ID : S_TEXT/UTF8
Codec ID/Info : UTF-8 Plain Text
Duration : 1 h 10 min
Bit rate : 12 b/s
Frame rate : 0.021 FPS
Count of elements : 91
Stream size : 6.41 KiB (0%)
Title : Forced
Language : Tamil
Default : No
Forced : Yes

Text #58
ID : 79
Format : UTF-8
Codec ID : S_TEXT/UTF8
Codec ID/Info : UTF-8 Plain Text
Duration : 1 h 11 min
Bit rate : 15 b/s
Frame rate : 0.033 FPS
Count of elements : 141
Stream size : 8.00 KiB (0%)
Title : Forced
Language : Telugu
Default : No
Forced : Yes

Text #59
ID : 80
Format : UTF-8
Codec ID : S_TEXT/UTF8
Codec ID/Info : UTF-8 Plain Text
Duration : 56 min 37 s
Bit rate : 8 b/s
Frame rate : 0.018 FPS
Count of elements : 62
Stream size : 3.48 KiB (0%)
Title : Forced
Language : Thai
Default : No
Forced : Yes

Text #60
ID : 81
Format : UTF-8
Codec ID : S_TEXT/UTF8
Codec ID/Info : UTF-8 Plain Text
Duration : 1 h 12 min
Bit rate : 135 b/s
Frame rate : 0.238 FPS
Count of elements : 1031
Stream size : 71.7 KiB (0%)
Language : Thai
Default : No
Forced : No

Text #61
ID : 82
Format : UTF-8
Codec ID : S_TEXT/UTF8
Codec ID/Info : UTF-8 Plain Text
Duration : 1 h 8 min
Bit rate : 137 b/s
Frame rate : 0.253 FPS
Count of elements : 1038
Stream size : 68.6 KiB (0%)
Language : Thai
Default : No
Forced : No

Text #62
ID : 83
Format : UTF-8
Codec ID : S_TEXT/UTF8
Codec ID/Info : UTF-8 Plain Text
Duration : 1 h 12 min
Bit rate : 182 b/s
Frame rate : 0.311 FPS
Count of elements : 1352
Stream size : 96.9 KiB (0%)
Title : SDH
Language : Thai
Default : No
Forced : No

Text #63
ID : 84
Format : UTF-8
Codec ID : S_TEXT/UTF8
Codec ID/Info : UTF-8 Plain Text
Duration : 1 h 9 min
Bit rate : 2 b/s
Frame rate : 0.011 FPS
Count of elements : 48
Stream size : 1.51 KiB (0%)
Title : Forced
Language : Turkish
Default : No
Forced : Yes

Text #64
ID : 85
Format : UTF-8
Codec ID : S_TEXT/UTF8
Codec ID/Info : UTF-8 Plain Text
Duration : 1 h 12 min
Bit rate : 53 b/s
Frame rate : 0.175 FPS
Count of elements : 759
Stream size : 28.1 KiB (0%)
Language : Turkish
Default : No
Forced : No

Text #65
ID : 86
Format : UTF-8
Codec ID : S_TEXT/UTF8
Codec ID/Info : UTF-8 Plain Text
Duration : 1 h 9 min
Bit rate : 4 b/s
Frame rate : 0.015 FPS
Count of elements : 63
Stream size : 2.11 KiB (0%)
Title : Forced
Language : Ukrainian
Default : No
Forced : Yes

Text #66
ID : 87
Format : UTF-8
Codec ID : S_TEXT/UTF8
Codec ID/Info : UTF-8 Plain Text
Duration : 1 h 12 min
Bit rate : 81 b/s
Frame rate : 0.238 FPS
Count of elements : 1029
Stream size : 43.0 KiB (0%)
Language : Ukrainian
Default : No
Forced : No

Text #67
ID : 88
Format : UTF-8
Codec ID : S_TEXT/UTF8
Codec ID/Info : UTF-8 Plain Text
Duration : 49 min 50 s
Bit rate : 5 b/s
Frame rate : 0.016 FPS
Count of elements : 48
Stream size : 1.88 KiB (0%)
Title : Forced
Language : Vietnamese
Default : No
Forced : Yes

Text #68
ID : 89
Format : UTF-8
Codec ID : S_TEXT/UTF8
Codec ID/Info : UTF-8 Plain Text
Duration : 1 h 12 min
Bit rate : 72 b/s
Frame rate : 0.231 FPS
Count of elements : 1002
Stream size : 38.4 KiB (0%)
Language : Vietnamese
Default : No
Forced : No

Text #69
ID : 90
Format : UTF-8
Codec ID : S_TEXT/UTF8
Codec ID/Info : UTF-8 Plain Text
Duration : 1 h 8 min
Bit rate : 89 b/s
Frame rate : 0.172 FPS
Count of elements : 705
Stream size : 44.9 KiB (0%)
Language : Vietnamese
Default : No
Forced : No

Text #70
ID : 91
Format : UTF-8
Codec ID : S_TEXT/UTF8
Codec ID/Info : UTF-8 Plain Text
Duration : 1 h 12 min
Bit rate : 58 b/s
Frame rate : 0.238 FPS
Count of elements : 1031
Stream size : 31.2 KiB (0%)
Title : Simplified
Language : Chinese
Default : No
Forced : No

Text #71
ID : 92
Format : UTF-8
Codec ID : S_TEXT/UTF8
Codec ID/Info : UTF-8 Plain Text
Duration : 1 h 12 min
Bit rate : 54 b/s
Frame rate : 0.248 FPS
Count of elements : 1074
Stream size : 28.9 KiB (0%)
Title : Traditional
Language : Chinese
Default : No
Forced : No

Menu
00:00:00.000 : en:Part 01
00:02:45.500 : en:Intro
00:03:35.250 : en:Part 02
01:10:18.450 : en:Credits





Stranger Things S04E06


Stranger Things S04E06


Stranger Things S04E06


Stranger Things S04E06


Stranger Things S04E06

All episodes