Index
# A B C D E F G H I J K L M N O P Q R S T U V W X Y Z
Tags
Language
Tags
July 2024
Su Mo Tu We Th Fr Sa
30 1 2 3 4 5 6
7 8 9 10 11 12 13
14 15 16 17 18 19 20
21 22 23 24 25 26 27
28 29 30 31 1 2 3

Featured TV Shows


Stranger Things S04E02

Posted By: Tavaz
1080p (FullHD) / WEB-DL IMDb
Stranger Things S04E02

Stranger Things S04E02
WEB-DL | MKV | 1920x1080 | Deutsch / Bahasa Indonesia / Français / हिन्दी / Türkçe / Українська / Italiano / tiếng Việt / ภาษาไทย / Polski / Čeština / Magyar / Español / 日本語 / English / Português | H264 @ 4710 kbps | E-AC-3 @ 768.0 kbps | 1 h 18 min | 9.62 GiB
Subtitles: Hrvatski, Deutsch, Українська, ภาษาไทย, Suomi, Svenska, Português, Русский, עברית, Français, Čeština, 日本語, العربية, Türkçe, Bokmål, Bahasa Indonesia, tiếng Việt, Italiano, Polski, Română, Dansk, 한국어, English, 中文, हिन्दी, Ελληνικά, Magyar, Español, Nederlands
Genre: Drama, Mystery


When a young boy vanishes, a small town uncovers a mystery involving secret experiments, terrifying supernatural forces, and one strange little girl.

Stranger.Things.S04E02.Capitulo.dois.A.maldicao.de.Vecna.1080p.NF.WEB-DL.DDP5.1.Atmos.H.264.MULTi-OLYMPUS.part1.rar (5.1 GB)
Stranger.Things.S04E02.Capitulo.dois.A.maldicao.de.Vecna.1080p.NF.WEB-DL.DDP5.1.Atmos.H.264.MULTi-OLYMPUS.part2.rar (4.7 GB)



General
Unique ID : 188132514619149310856981781961119218090 (0x8D89011C8B215C6A99C01EA16885B9AA)
Complete name : ./Stranger.Things.S04E02.Capitulo.dois.A.maldicao.de.Vecna.1080p.NF.WEB-DL.DDP5.1.Atmos.H.264.MULTi-OLYMPUS.mkv
Format : Matroska
Format version : Version 4
File size : 9.62 GiB
Duration : 1 h 18 min
Overall bit rate mode : Variable
Overall bit rate : 17.7 Mb/s
Encoded date : UTC 2024-05-15 03:52:04
Writing application : mkvmerge v84.0 ('Sleeper') 64-bit
Writing library : libebml v1.4.5 + libmatroska v1.7.1

Video
ID : 1
Format : AVC
Format/Info : Advanced Video Codec
Format profile : Main@L4
Format settings : CABAC / 3 Ref Frames
Format settings, CABAC : Yes
Format settings, Reference frames : 3 frames
Codec ID : V_MPEG4/ISO/AVC
Duration : 1 h 18 min
Bit rate mode : Variable
Bit rate : 4 710 kb/s
Nominal bit rate : 5 000 kb/s
Maximum bit rate : 7 500 kb/s
Width : 1 920 pixels
Height : 1 080 pixels
Display aspect ratio : 16:9
Frame rate mode : Constant
Frame rate : 23.976 (24000/1001) FPS
Color space : YUV
Chroma subsampling : 4:2:0
Bit depth : 8 bits
Scan type : Progressive
Bits/(Pixel*Frame) : 0.095
Stream size : 2.57 GiB (27%)
Writing library : x264 core 148 r2727 7d026e8
Encoding settings : cabac=1 / ref=3 / deblock=1:0:0 / analyse=0x1:0x111 / me=umh / subme=10 / psy=1 / psy_rd=1.00:0.00 / mixed_ref=1 / me_range=24 / chroma_me=1 / trellis=2 / 8x8dct=0 / cqm=0 / deadzone=21,11 / fast_pskip=1 / chroma_qp_offset=-2 / threads=6 / lookahead_threads=1 / sliced_threads=0 / nr=0 / decimate=1 / interlaced=0 / bluray_compat=0 / stitchable=1 / constrained_intra=0 / bframes=2 / b_pyramid=0 / b_adapt=2 / b_bias=0 / direct=3 / weightb=1 / open_gop=0 / weightp=2 / keyint=240 / keyint_min=121 / scenecut=0 / intra_refresh=0 / rc_lookahead=48 / rc=2pass / mbtree=1 / bitrate=5000 / ratetol=1.0 / qcomp=0.50 / qpmin=6 / qpmax=51 / qpstep=4 / cplxblur=20.0 / qblur=0.5 / vbv_maxrate=7500 / vbv_bufsize=10000 / nal_hrd=vbr / filler=0 / ip_ratio=1.40 / aq=1:1.00
Default : Yes
Forced : No

Audio #1
ID : 2
Format : E-AC-3 JOC
Format/Info : Enhanced AC-3 with Joint Object Coding
Commercial name : Dolby Digital Plus with Dolby Atmos
Codec ID : A_EAC3
Duration : 1 h 18 min
Bit rate mode : Constant
Bit rate : 768 kb/s
Channel(s) : 6 channels
Channel layout : L R C LFE Ls Rs
Sampling rate : 48.0 kHz
Frame rate : 31.250 FPS (1536 SPF)
Compression mode : Lossy
Stream size : 429 MiB (4%)
Language : English
Service kind : Complete Main
Default : Yes
Forced : No
Complexity index : 16
Number of dynamic objects : 15
Bed channel count : 1 channel
Bed channel configuration : LFE

Audio #2
ID : 3
Format : E-AC-3
Format/Info : Enhanced AC-3
Commercial name : Dolby Digital Plus
Codec ID : A_EAC3
Duration : 1 h 18 min
Bit rate mode : Constant
Bit rate : 640 kb/s
Channel(s) : 6 channels
Channel layout : L R C LFE Ls Rs
Sampling rate : 48.0 kHz
Frame rate : 31.250 FPS (1536 SPF)
Compression mode : Lossy
Stream size : 357 MiB (4%)
Title : Brazilian
Language : Portuguese
Service kind : Complete Main
Default : No
Forced : No

Audio #3
ID : 4
Format : E-AC-3
Format/Info : Enhanced AC-3
Commercial name : Dolby Digital Plus
Codec ID : A_EAC3
Duration : 1 h 18 min
Bit rate mode : Constant
Bit rate : 640 kb/s
Channel(s) : 6 channels
Channel layout : L R C LFE Ls Rs
Sampling rate : 48.0 kHz
Frame rate : 31.250 FPS (1536 SPF)
Compression mode : Lossy
Stream size : 357 MiB (4%)
Language : Czech
Service kind : Complete Main
Default : No
Forced : No

Audio #4
ID : 5
Format : E-AC-3
Format/Info : Enhanced AC-3
Commercial name : Dolby Digital Plus
Codec ID : A_EAC3
Duration : 1 h 18 min
Bit rate mode : Constant
Bit rate : 640 kb/s
Channel(s) : 6 channels
Channel layout : L R C LFE Ls Rs
Sampling rate : 48.0 kHz
Frame rate : 31.250 FPS (1536 SPF)
Compression mode : Lossy
Stream size : 357 MiB (4%)
Language : German
Service kind : Complete Main
Default : No
Forced : No

Audio #5
ID : 6
Format : E-AC-3
Format/Info : Enhanced AC-3
Commercial name : Dolby Digital Plus
Codec ID : A_EAC3
Duration : 1 h 18 min
Bit rate mode : Constant
Bit rate : 640 kb/s
Channel(s) : 6 channels
Channel layout : L R C LFE Ls Rs
Sampling rate : 48.0 kHz
Frame rate : 31.250 FPS (1536 SPF)
Compression mode : Lossy
Stream size : 357 MiB (4%)
Title : Latin American
Language : Spanish
Service kind : Complete Main
Default : No
Forced : No

Audio #6
ID : 7
Format : E-AC-3
Format/Info : Enhanced AC-3
Commercial name : Dolby Digital Plus
Codec ID : A_EAC3
Duration : 1 h 18 min
Bit rate mode : Constant
Bit rate : 640 kb/s
Channel(s) : 6 channels
Channel layout : L R C LFE Ls Rs
Sampling rate : 48.0 kHz
Frame rate : 31.250 FPS (1536 SPF)
Compression mode : Lossy
Stream size : 357 MiB (4%)
Title : European
Language : Spanish
Service kind : Complete Main
Default : No
Forced : No

Audio #7
ID : 8
Format : E-AC-3
Format/Info : Enhanced AC-3
Commercial name : Dolby Digital Plus
Codec ID : A_EAC3
Duration : 1 h 18 min
Bit rate mode : Constant
Bit rate : 640 kb/s
Channel(s) : 6 channels
Channel layout : L R C LFE Ls Rs
Sampling rate : 48.0 kHz
Frame rate : 31.250 FPS (1536 SPF)
Compression mode : Lossy
Stream size : 357 MiB (4%)
Language : fil
Service kind : Complete Main
Default : No
Forced : No

Audio #8
ID : 9
Format : E-AC-3
Format/Info : Enhanced AC-3
Commercial name : Dolby Digital Plus
Codec ID : A_EAC3
Duration : 1 h 18 min
Bit rate mode : Constant
Bit rate : 640 kb/s
Channel(s) : 6 channels
Channel layout : L R C LFE Ls Rs
Sampling rate : 48.0 kHz
Frame rate : 31.250 FPS (1536 SPF)
Compression mode : Lossy
Stream size : 357 MiB (4%)
Language : French
Service kind : Complete Main
Default : No
Forced : No

Audio #9
ID : 10
Format : E-AC-3
Format/Info : Enhanced AC-3
Commercial name : Dolby Digital Plus
Codec ID : A_EAC3
Duration : 1 h 18 min
Bit rate mode : Constant
Bit rate : 640 kb/s
Channel(s) : 6 channels
Channel layout : L R C LFE Ls Rs
Sampling rate : 48.0 kHz
Frame rate : 31.250 FPS (1536 SPF)
Compression mode : Lossy
Stream size : 357 MiB (4%)
Language : Hindi
Service kind : Complete Main
Default : No
Forced : No

Audio #10
ID : 11
Format : E-AC-3
Format/Info : Enhanced AC-3
Commercial name : Dolby Digital Plus
Codec ID : A_EAC3
Duration : 1 h 18 min
Bit rate mode : Constant
Bit rate : 640 kb/s
Channel(s) : 6 channels
Channel layout : L R C LFE Ls Rs
Sampling rate : 48.0 kHz
Frame rate : 31.250 FPS (1536 SPF)
Compression mode : Lossy
Stream size : 357 MiB (4%)
Language : Hungarian
Service kind : Complete Main
Default : No
Forced : No

Audio #11
ID : 12
Format : E-AC-3
Format/Info : Enhanced AC-3
Commercial name : Dolby Digital Plus
Codec ID : A_EAC3
Duration : 1 h 18 min
Bit rate mode : Constant
Bit rate : 640 kb/s
Channel(s) : 6 channels
Channel layout : L R C LFE Ls Rs
Sampling rate : 48.0 kHz
Frame rate : 31.250 FPS (1536 SPF)
Compression mode : Lossy
Stream size : 357 MiB (4%)
Language : Indonesian
Service kind : Complete Main
Default : No
Forced : No

Audio #12
ID : 13
Format : E-AC-3
Format/Info : Enhanced AC-3
Commercial name : Dolby Digital Plus
Codec ID : A_EAC3
Duration : 1 h 18 min
Bit rate mode : Constant
Bit rate : 640 kb/s
Channel(s) : 6 channels
Channel layout : L R C LFE Ls Rs
Sampling rate : 48.0 kHz
Frame rate : 31.250 FPS (1536 SPF)
Compression mode : Lossy
Stream size : 357 MiB (4%)
Language : Italian
Service kind : Complete Main
Default : No
Forced : No

Audio #13
ID : 14
Format : E-AC-3
Format/Info : Enhanced AC-3
Commercial name : Dolby Digital Plus
Codec ID : A_EAC3
Duration : 1 h 18 min
Bit rate mode : Constant
Bit rate : 640 kb/s
Channel(s) : 6 channels
Channel layout : L R C LFE Ls Rs
Sampling rate : 48.0 kHz
Frame rate : 31.250 FPS (1536 SPF)
Compression mode : Lossy
Stream size : 357 MiB (4%)
Language : Japanese
Service kind : Complete Main
Default : No
Forced : No

Audio #14
ID : 15
Format : E-AC-3
Format/Info : Enhanced AC-3
Commercial name : Dolby Digital Plus
Codec ID : A_EAC3
Duration : 1 h 18 min
Bit rate mode : Constant
Bit rate : 640 kb/s
Channel(s) : 6 channels
Channel layout : L R C LFE Ls Rs
Sampling rate : 48.0 kHz
Frame rate : 31.250 FPS (1536 SPF)
Compression mode : Lossy
Stream size : 357 MiB (4%)
Language : Polish
Service kind : Complete Main
Default : No
Forced : No

Audio #15
ID : 16
Format : E-AC-3
Format/Info : Enhanced AC-3
Commercial name : Dolby Digital Plus
Codec ID : A_EAC3
Duration : 1 h 18 min
Bit rate mode : Constant
Bit rate : 640 kb/s
Channel(s) : 6 channels
Channel layout : L R C LFE Ls Rs
Sampling rate : 48.0 kHz
Frame rate : 31.250 FPS (1536 SPF)
Compression mode : Lossy
Stream size : 357 MiB (4%)
Language : Tamil
Service kind : Complete Main
Default : No
Forced : No

Audio #16
ID : 17
Format : E-AC-3
Format/Info : Enhanced AC-3
Commercial name : Dolby Digital Plus
Codec ID : A_EAC3
Duration : 1 h 18 min
Bit rate mode : Constant
Bit rate : 640 kb/s
Channel(s) : 6 channels
Channel layout : L R C LFE Ls Rs
Sampling rate : 48.0 kHz
Frame rate : 31.250 FPS (1536 SPF)
Compression mode : Lossy
Stream size : 357 MiB (4%)
Language : Telugu
Service kind : Complete Main
Default : No
Forced : No

Audio #17
ID : 18
Format : E-AC-3
Format/Info : Enhanced AC-3
Commercial name : Dolby Digital Plus
Codec ID : A_EAC3
Duration : 1 h 18 min
Bit rate mode : Constant
Bit rate : 640 kb/s
Channel(s) : 6 channels
Channel layout : L R C LFE Ls Rs
Sampling rate : 48.0 kHz
Frame rate : 31.250 FPS (1536 SPF)
Compression mode : Lossy
Stream size : 357 MiB (4%)
Language : Thai
Service kind : Complete Main
Default : No
Forced : No

Audio #18
ID : 19
Format : E-AC-3
Format/Info : Enhanced AC-3
Commercial name : Dolby Digital Plus
Codec ID : A_EAC3
Duration : 1 h 18 min
Bit rate mode : Constant
Bit rate : 640 kb/s
Channel(s) : 6 channels
Channel layout : L R C LFE Ls Rs
Sampling rate : 48.0 kHz
Frame rate : 31.250 FPS (1536 SPF)
Compression mode : Lossy
Stream size : 357 MiB (4%)
Language : Turkish
Service kind : Complete Main
Default : No
Forced : No

Audio #19
ID : 20
Format : E-AC-3
Format/Info : Enhanced AC-3
Commercial name : Dolby Digital Plus
Codec ID : A_EAC3
Duration : 1 h 18 min
Bit rate mode : Constant
Bit rate : 640 kb/s
Channel(s) : 6 channels
Channel layout : L R C LFE Ls Rs
Sampling rate : 48.0 kHz
Frame rate : 31.250 FPS (1536 SPF)
Compression mode : Lossy
Stream size : 357 MiB (4%)
Language : Ukrainian
Service kind : Complete Main
Default : No
Forced : No

Audio #20
ID : 21
Format : E-AC-3
Format/Info : Enhanced AC-3
Commercial name : Dolby Digital Plus
Codec ID : A_EAC3
Duration : 1 h 18 min
Bit rate mode : Constant
Bit rate : 640 kb/s
Channel(s) : 6 channels
Channel layout : L R C LFE Ls Rs
Sampling rate : 48.0 kHz
Frame rate : 31.250 FPS (1536 SPF)
Compression mode : Lossy
Stream size : 357 MiB (4%)
Language : Vietnamese
Service kind : Complete Main
Default : No
Forced : No

Text #1
ID : 22
Format : UTF-8
Codec ID : S_TEXT/UTF8
Codec ID/Info : UTF-8 Plain Text
Duration : 1 h 13 min
Bit rate : 1 b/s
Frame rate : 0.009 FPS
Count of elements : 40
Stream size : 1.02 KiB (0%)
Title : Brazilian (Forced)
Language : Portuguese
Default : No
Forced : Yes

Text #2
ID : 23
Format : UTF-8
Codec ID : S_TEXT/UTF8
Codec ID/Info : UTF-8 Plain Text
Duration : 1 h 9 min
Bit rate : 63 b/s
Frame rate : 0.240 FPS
Count of elements : 1006
Stream size : 32.3 KiB (0%)
Title : Brazilian
Language : Portuguese
Default : No
Forced : No

Text #3
ID : 24
Format : UTF-8
Codec ID : S_TEXT/UTF8
Codec ID/Info : UTF-8 Plain Text
Duration : 1 h 13 min
Bit rate : 56 b/s
Frame rate : 0.231 FPS
Count of elements : 1013
Stream size : 30.5 KiB (0%)
Title : Brazilian
Language : Portuguese
Default : No
Forced : No

Text #4
ID : 25
Format : UTF-8
Codec ID : S_TEXT/UTF8
Codec ID/Info : UTF-8 Plain Text
Duration : 1 h 12 min
Bit rate : 77 b/s
Frame rate : 0.283 FPS
Count of elements : 1231
Stream size : 41.0 KiB (0%)
Title : Brazilian (SDH)
Language : Portuguese
Default : No
Forced : No

Text #5
ID : 26
Format : UTF-8
Codec ID : S_TEXT/UTF8
Codec ID/Info : UTF-8 Plain Text
Duration : 1 h 9 min
Bit rate : 58 b/s
Frame rate : 0.248 FPS
Count of elements : 1037
Stream size : 29.9 KiB (0%)
Title : European
Language : Portuguese
Default : No
Forced : No

Text #6
ID : 27
Format : UTF-8
Codec ID : S_TEXT/UTF8
Codec ID/Info : UTF-8 Plain Text
Duration : 1 h 13 min
Bit rate : 95 b/s
Frame rate : 0.242 FPS
Count of elements : 1063
Stream size : 51.0 KiB (0%)
Language : Arabic
Default : No
Forced : No

Text #7
ID : 28
Format : UTF-8
Codec ID : S_TEXT/UTF8
Codec ID/Info : UTF-8 Plain Text
Duration : 1 h 13 min
Bit rate : 1 b/s
Frame rate : 0.008 FPS
Count of elements : 37
Stream size : 998 Bytes (0%)
Title : Forced
Language : Czech
Default : No
Forced : Yes

Text #8
ID : 29
Format : UTF-8
Codec ID : S_TEXT/UTF8
Codec ID/Info : UTF-8 Plain Text
Duration : 1 h 13 min
Bit rate : 54 b/s
Frame rate : 0.239 FPS
Count of elements : 1049
Stream size : 29.1 KiB (0%)
Language : Czech
Default : No
Forced : No

Text #9
ID : 30
Format : UTF-8
Codec ID : S_TEXT/UTF8
Codec ID/Info : UTF-8 Plain Text
Duration : 1 h 13 min
Bit rate : 54 b/s
Frame rate : 0.226 FPS
Count of elements : 991
Stream size : 29.3 KiB (0%)
Language : Danish
Default : No
Forced : No

Text #10
ID : 31
Format : UTF-8
Codec ID : S_TEXT/UTF8
Codec ID/Info : UTF-8 Plain Text
Duration : 1 h 13 min
Bit rate : 1 b/s
Frame rate : 0.008 FPS
Count of elements : 37
Stream size : 956 Bytes (0%)
Title : Forced
Language : German
Default : No
Forced : Yes

Text #11
ID : 32
Format : UTF-8
Codec ID : S_TEXT/UTF8
Codec ID/Info : UTF-8 Plain Text
Duration : 1 h 13 min
Bit rate : 55 b/s
Frame rate : 0.231 FPS
Count of elements : 1013
Stream size : 29.7 KiB (0%)
Language : German
Default : No
Forced : No

Text #12
ID : 33
Format : UTF-8
Codec ID : S_TEXT/UTF8
Codec ID/Info : UTF-8 Plain Text
Duration : 1 h 9 min
Bit rate : 68 b/s
Frame rate : 0.245 FPS
Count of elements : 1024
Stream size : 35.1 KiB (0%)
Language : German
Default : No
Forced : No

Text #13
ID : 34
Format : UTF-8
Codec ID : S_TEXT/UTF8
Codec ID/Info : UTF-8 Plain Text
Duration : 1 h 12 min
Bit rate : 81 b/s
Frame rate : 0.296 FPS
Count of elements : 1289
Stream size : 43.1 KiB (0%)
Title : SDH
Language : German
Default : No
Forced : No

Text #14
ID : 35
Format : UTF-8
Codec ID : S_TEXT/UTF8
Codec ID/Info : UTF-8 Plain Text
Duration : 1 h 13 min
Bit rate : 90 b/s
Frame rate : 0.241 FPS
Count of elements : 1058
Stream size : 48.3 KiB (0%)
Language : Greek
Default : No
Forced : No

Text #15
ID : 36
Format : UTF-8
Codec ID : S_TEXT/UTF8
Codec ID/Info : UTF-8 Plain Text
Duration : 34 min 27 s
Bit rate : 2 b/s
Frame rate : 0.010 FPS
Count of elements : 21
Stream size : 585 Bytes (0%)
Title : Forced
Language : English
Default : Yes
Forced : Yes

Text #16
ID : 37
Format : UTF-8
Codec ID : S_TEXT/UTF8
Codec ID/Info : UTF-8 Plain Text
Duration : 1 h 12 min
Bit rate : 75 b/s
Frame rate : 0.296 FPS
Count of elements : 1288
Stream size : 40.1 KiB (0%)
Title : SDH
Language : English
Default : No
Forced : No

Text #17
ID : 38
Format : UTF-8
Codec ID : S_TEXT/UTF8
Codec ID/Info : UTF-8 Plain Text
Duration : 1 h 13 min
Bit rate : 1 b/s
Frame rate : 0.009 FPS
Count of elements : 41
Stream size : 1.03 KiB (0%)
Title : Latin American (Forced)
Language : Spanish
Default : No
Forced : Yes

Text #18
ID : 39
Format : UTF-8
Codec ID : S_TEXT/UTF8
Codec ID/Info : UTF-8 Plain Text
Duration : 1 h 9 min
Bit rate : 62 b/s
Frame rate : 0.258 FPS
Count of elements : 1080
Stream size : 32.1 KiB (0%)
Title : Latin American
Language : Spanish
Default : No
Forced : No

Text #19
ID : 40
Format : UTF-8
Codec ID : S_TEXT/UTF8
Codec ID/Info : UTF-8 Plain Text
Duration : 1 h 13 min
Bit rate : 55 b/s
Frame rate : 0.238 FPS
Count of elements : 1043
Stream size : 29.9 KiB (0%)
Title : Latin American
Language : Spanish
Default : No
Forced : No

Text #20
ID : 41
Format : UTF-8
Codec ID : S_TEXT/UTF8
Codec ID/Info : UTF-8 Plain Text
Duration : 1 h 12 min
Bit rate : 67 b/s
Frame rate : 0.288 FPS
Count of elements : 1249
Stream size : 35.9 KiB (0%)
Title : Latin American (SDH)
Language : Spanish
Default : No
Forced : No

Text #21
ID : 42
Format : UTF-8
Codec ID : S_TEXT/UTF8
Codec ID/Info : UTF-8 Plain Text
Duration : 1 h 13 min
Bit rate : 1 b/s
Frame rate : 0.009 FPS
Count of elements : 38
Stream size : 1 005 Bytes (0%)
Title : European (Forced)
Language : Spanish
Default : No
Forced : Yes

Text #22
ID : 43
Format : UTF-8
Codec ID : S_TEXT/UTF8
Codec ID/Info : UTF-8 Plain Text
Duration : 1 h 13 min
Bit rate : 52 b/s
Frame rate : 0.235 FPS
Count of elements : 1029
Stream size : 28.3 KiB (0%)
Title : European
Language : Spanish
Default : No
Forced : No

Text #23
ID : 44
Format : UTF-8
Codec ID : S_TEXT/UTF8
Codec ID/Info : UTF-8 Plain Text
Duration : 1 h 9 min
Bit rate : 62 b/s
Frame rate : 0.258 FPS
Count of elements : 1080
Stream size : 32.0 KiB (0%)
Title : European
Language : Spanish
Default : No
Forced : No

Text #24
ID : 45
Format : UTF-8
Codec ID : S_TEXT/UTF8
Codec ID/Info : UTF-8 Plain Text
Duration : 1 h 12 min
Bit rate : 74 b/s
Frame rate : 0.307 FPS
Count of elements : 1336
Stream size : 39.6 KiB (0%)
Title : European (SDH)
Language : Spanish
Default : No
Forced : No

Text #25
ID : 46
Format : UTF-8
Codec ID : S_TEXT/UTF8
Codec ID/Info : UTF-8 Plain Text
Duration : 1 h 13 min
Bit rate : 50 b/s
Frame rate : 0.210 FPS
Count of elements : 920
Stream size : 27.2 KiB (0%)
Language : Finnish
Default : No
Forced : No

Text #26
ID : 47
Format : UTF-8
Codec ID : S_TEXT/UTF8
Codec ID/Info : UTF-8 Plain Text
Duration : 1 h 12 min
Bit rate : 1 b/s
Frame rate : 0.006 FPS
Count of elements : 27
Stream size : 819 Bytes (0%)
Title : Forced
Language : fil
Default : No
Forced : Yes

Text #27
ID : 48
Format : UTF-8
Codec ID : S_TEXT/UTF8
Codec ID/Info : UTF-8 Plain Text
Duration : 1 h 12 min
Bit rate : 56 b/s
Frame rate : 0.218 FPS
Count of elements : 945
Stream size : 29.7 KiB (0%)
Language : fil
Default : No
Forced : No

Text #28
ID : 49
Format : UTF-8
Codec ID : S_TEXT/UTF8
Codec ID/Info : UTF-8 Plain Text
Duration : 1 h 13 min
Bit rate : 1 b/s
Frame rate : 0.007 FPS
Count of elements : 32
Stream size : 868 Bytes (0%)
Title : Forced
Language : French
Default : No
Forced : Yes

Text #29
ID : 50
Format : UTF-8
Codec ID : S_TEXT/UTF8
Codec ID/Info : UTF-8 Plain Text
Duration : 1 h 13 min
Bit rate : 51 b/s
Frame rate : 0.229 FPS
Count of elements : 1004
Stream size : 27.4 KiB (0%)
Language : French
Default : No
Forced : No

Text #30
ID : 51
Format : UTF-8
Codec ID : S_TEXT/UTF8
Codec ID/Info : UTF-8 Plain Text
Duration : 1 h 13 min
Bit rate : 65 b/s
Frame rate : 0.234 FPS
Count of elements : 1027
Stream size : 35.0 KiB (0%)
Language : French
Default : No
Forced : No

Text #31
ID : 52
Format : UTF-8
Codec ID : S_TEXT/UTF8
Codec ID/Info : UTF-8 Plain Text
Duration : 1 h 14 min
Bit rate : 77 b/s
Frame rate : 0.279 FPS
Count of elements : 1254
Stream size : 42.3 KiB (0%)
Title : SDH
Language : French
Default : No
Forced : No

Text #32
ID : 53
Format : UTF-8
Codec ID : S_TEXT/UTF8
Codec ID/Info : UTF-8 Plain Text
Duration : 1 h 13 min
Bit rate : 90 b/s
Frame rate : 0.242 FPS
Count of elements : 1062
Stream size : 48.7 KiB (0%)
Language : Hebrew
Default : No
Forced : No

Text #33
ID : 54
Format : UTF-8
Codec ID : S_TEXT/UTF8
Codec ID/Info : UTF-8 Plain Text
Duration : 1 h 9 min
Bit rate : 1 b/s
Frame rate : 0.006 FPS
Count of elements : 24
Stream size : 902 Bytes (0%)
Title : Latin (Forced)
Language : Hindi
Default : No
Forced : Yes

Text #34
ID : 55
Format : UTF-8
Codec ID : S_TEXT/UTF8
Codec ID/Info : UTF-8 Plain Text
Duration : 1 h 13 min
Bit rate : 52 b/s
Frame rate : 0.236 FPS
Count of elements : 1034
Stream size : 27.9 KiB (0%)
Language : Croatian
Default : No
Forced : No

Text #35
ID : 56
Format : UTF-8
Codec ID : S_TEXT/UTF8
Codec ID/Info : UTF-8 Plain Text
Duration : 1 h 13 min
Bit rate : 1 b/s
Frame rate : 0.008 FPS
Count of elements : 36
Stream size : 963 Bytes (0%)
Title : Forced
Language : Hungarian
Default : No
Forced : Yes

Text #36
ID : 57
Format : UTF-8
Codec ID : S_TEXT/UTF8
Codec ID/Info : UTF-8 Plain Text
Duration : 1 h 13 min
Bit rate : 52 b/s
Frame rate : 0.225 FPS
Count of elements : 987
Stream size : 28.3 KiB (0%)
Language : Hungarian
Default : No
Forced : No

Text #37
ID : 58
Format : UTF-8
Codec ID : S_TEXT/UTF8
Codec ID/Info : UTF-8 Plain Text
Duration : 1 h 13 min
Bit rate : 1 b/s
Frame rate : 0.009 FPS
Count of elements : 39
Stream size : 946 Bytes (0%)
Title : Forced
Language : Indonesian
Default : No
Forced : Yes

Text #38
ID : 59
Format : UTF-8
Codec ID : S_TEXT/UTF8
Codec ID/Info : UTF-8 Plain Text
Duration : 1 h 13 min
Bit rate : 54 b/s
Frame rate : 0.235 FPS
Count of elements : 1032
Stream size : 29.1 KiB (0%)
Language : Indonesian
Default : No
Forced : No

Text #39
ID : 60
Format : UTF-8
Codec ID : S_TEXT/UTF8
Codec ID/Info : UTF-8 Plain Text
Duration : 1 h 13 min
Bit rate : 1 b/s
Frame rate : 0.007 FPS
Count of elements : 32
Stream size : 890 Bytes (0%)
Title : Forced
Language : Italian
Default : No
Forced : Yes

Text #40
ID : 61
Format : UTF-8
Codec ID : S_TEXT/UTF8
Codec ID/Info : UTF-8 Plain Text
Duration : 1 h 13 min
Bit rate : 52 b/s
Frame rate : 0.236 FPS
Count of elements : 1035
Stream size : 28.3 KiB (0%)
Language : Italian
Default : No
Forced : No

Text #41
ID : 62
Format : UTF-8
Codec ID : S_TEXT/UTF8
Codec ID/Info : UTF-8 Plain Text
Duration : 1 h 9 min
Bit rate : 65 b/s
Frame rate : 0.249 FPS
Count of elements : 1041
Stream size : 33.3 KiB (0%)
Language : Italian
Default : No
Forced : No

Text #42
ID : 63
Format : UTF-8
Codec ID : S_TEXT/UTF8
Codec ID/Info : UTF-8 Plain Text
Duration : 1 h 12 min
Bit rate : 78 b/s
Frame rate : 0.296 FPS
Count of elements : 1287
Stream size : 41.6 KiB (0%)
Title : SDH
Language : Italian
Default : No
Forced : No

Text #43
ID : 64
Format : UTF-8
Codec ID : S_TEXT/UTF8
Codec ID/Info : UTF-8 Plain Text
Duration : 1 h 13 min
Bit rate : 2 b/s
Frame rate : 0.010 FPS
Count of elements : 42
Stream size : 1.41 KiB (0%)
Title : Forced
Language : Japanese
Default : No
Forced : Yes

Text #44
ID : 65
Format : UTF-8
Codec ID : S_TEXT/UTF8
Codec ID/Info : UTF-8 Plain Text
Duration : 1 h 13 min
Bit rate : 57 b/s
Frame rate : 0.239 FPS
Count of elements : 1048
Stream size : 30.9 KiB (0%)
Language : Japanese
Default : No
Forced : No

Text #45
ID : 66
Format : UTF-8
Codec ID : S_TEXT/UTF8
Codec ID/Info : UTF-8 Plain Text
Duration : 1 h 14 min
Bit rate : 52 b/s
Frame rate : 0.252 FPS
Count of elements : 1121
Stream size : 28.6 KiB (0%)
Language : Japanese
Default : No
Forced : No

Text #46
ID : 67
Format : UTF-8
Codec ID : S_TEXT/UTF8
Codec ID/Info : UTF-8 Plain Text
Duration : 1 h 14 min
Bit rate : 69 b/s
Frame rate : 0.289 FPS
Count of elements : 1298
Stream size : 38.0 KiB (0%)
Title : SDH
Language : Japanese
Default : No
Forced : No

Text #47
ID : 68
Format : UTF-8
Codec ID : S_TEXT/UTF8
Codec ID/Info : UTF-8 Plain Text
Duration : 1 h 13 min
Bit rate : 67 b/s
Frame rate : 0.237 FPS
Count of elements : 1042
Stream size : 36.3 KiB (0%)
Language : Korean
Default : No
Forced : No

Text #48
ID : 69
Format : UTF-8
Codec ID : S_TEXT/UTF8
Codec ID/Info : UTF-8 Plain Text
Duration : 1 h 13 min
Bit rate : 54 b/s
Frame rate : 0.240 FPS
Count of elements : 1051
Stream size : 29.0 KiB (0%)
Language : Malay
Default : No
Forced : No

Text #49
ID : 70
Format : UTF-8
Codec ID : S_TEXT/UTF8
Codec ID/Info : UTF-8 Plain Text
Duration : 1 h 13 min
Bit rate : 52 b/s
Frame rate : 0.214 FPS
Count of elements : 941
Stream size : 28.1 KiB (0%)
Language : Norwegian Bokmal
Default : No
Forced : No

Text #50
ID : 71
Format : UTF-8
Codec ID : S_TEXT/UTF8
Codec ID/Info : UTF-8 Plain Text
Duration : 1 h 13 min
Bit rate : 50 b/s
Frame rate : 0.199 FPS
Count of elements : 875
Stream size : 27.1 KiB (0%)
Language : Dutch
Default : No
Forced : No

Text #51
ID : 72
Format : UTF-8
Codec ID : S_TEXT/UTF8
Codec ID/Info : UTF-8 Plain Text
Duration : 1 h 8 min
Bit rate : 0 b/s
Frame rate : 0.003 FPS
Count of elements : 11
Stream size : 239 Bytes (0%)
Title : Forced
Language : Polish
Default : No
Forced : Yes

Text #52
ID : 73
Format : UTF-8
Codec ID : S_TEXT/UTF8
Codec ID/Info : UTF-8 Plain Text
Duration : 1 h 13 min
Bit rate : 53 b/s
Frame rate : 0.232 FPS
Count of elements : 1017
Stream size : 28.8 KiB (0%)
Language : Polish
Default : No
Forced : No

Text #53
ID : 74
Format : UTF-8
Codec ID : S_TEXT/UTF8
Codec ID/Info : UTF-8 Plain Text
Duration : 1 h 14 min
Bit rate : 63 b/s
Frame rate : 0.284 FPS
Count of elements : 1275
Stream size : 34.9 KiB (0%)
Title : SDH
Language : Polish
Default : No
Forced : No

Text #54
ID : 75
Format : UTF-8
Codec ID : S_TEXT/UTF8
Codec ID/Info : UTF-8 Plain Text
Duration : 1 h 13 min
Bit rate : 61 b/s
Frame rate : 0.217 FPS
Count of elements : 951
Stream size : 32.8 KiB (0%)
Language : Romanian
Default : No
Forced : No

Text #55
ID : 76
Format : UTF-8
Codec ID : S_TEXT/UTF8
Codec ID/Info : UTF-8 Plain Text
Duration : 1 h 13 min
Bit rate : 88 b/s
Frame rate : 0.221 FPS
Count of elements : 969
Stream size : 47.4 KiB (0%)
Language : Russian
Default : No
Forced : No

Text #56
ID : 77
Format : UTF-8
Codec ID : S_TEXT/UTF8
Codec ID/Info : UTF-8 Plain Text
Duration : 1 h 13 min
Bit rate : 54 b/s
Frame rate : 0.198 FPS
Count of elements : 870
Stream size : 29.1 KiB (0%)
Language : Swedish
Default : No
Forced : No

Text #57
ID : 78
Format : UTF-8
Codec ID : S_TEXT/UTF8
Codec ID/Info : UTF-8 Plain Text
Duration : 1 h 13 min
Bit rate : 13 b/s
Frame rate : 0.023 FPS
Count of elements : 103
Stream size : 7.18 KiB (0%)
Title : Forced
Language : Tamil
Default : No
Forced : Yes

Text #58
ID : 79
Format : UTF-8
Codec ID : S_TEXT/UTF8
Codec ID/Info : UTF-8 Plain Text
Duration : 1 h 13 min
Bit rate : 13 b/s
Frame rate : 0.024 FPS
Count of elements : 104
Stream size : 7.20 KiB (0%)
Title : Forced
Language : Telugu
Default : No
Forced : Yes

Text #59
ID : 80
Format : UTF-8
Codec ID : S_TEXT/UTF8
Codec ID/Info : UTF-8 Plain Text
Duration : 1 h 13 min
Bit rate : 5 b/s
Frame rate : 0.010 FPS
Count of elements : 44
Stream size : 2.71 KiB (0%)
Title : Forced
Language : Thai
Default : No
Forced : Yes

Text #60
ID : 81
Format : UTF-8
Codec ID : S_TEXT/UTF8
Codec ID/Info : UTF-8 Plain Text
Duration : 1 h 13 min
Bit rate : 142 b/s
Frame rate : 0.244 FPS
Count of elements : 1071
Stream size : 76.4 KiB (0%)
Language : Thai
Default : No
Forced : No

Text #61
ID : 82
Format : UTF-8
Codec ID : S_TEXT/UTF8
Codec ID/Info : UTF-8 Plain Text
Duration : 1 h 9 min
Bit rate : 145 b/s
Frame rate : 0.261 FPS
Count of elements : 1080
Stream size : 73.4 KiB (0%)
Language : Thai
Default : No
Forced : No

Text #62
ID : 83
Format : UTF-8
Codec ID : S_TEXT/UTF8
Codec ID/Info : UTF-8 Plain Text
Duration : 1 h 12 min
Bit rate : 181 b/s
Frame rate : 0.309 FPS
Count of elements : 1344
Stream size : 96.1 KiB (0%)
Title : SDH
Language : Thai
Default : No
Forced : No

Text #63
ID : 84
Format : UTF-8
Codec ID : S_TEXT/UTF8
Codec ID/Info : UTF-8 Plain Text
Duration : 1 h 13 min
Bit rate : 1 b/s
Frame rate : 0.007 FPS
Count of elements : 32
Stream size : 896 Bytes (0%)
Title : Forced
Language : Turkish
Default : No
Forced : Yes

Text #64
ID : 85
Format : UTF-8
Codec ID : S_TEXT/UTF8
Codec ID/Info : UTF-8 Plain Text
Duration : 1 h 13 min
Bit rate : 56 b/s
Frame rate : 0.191 FPS
Count of elements : 837
Stream size : 30.4 KiB (0%)
Language : Turkish
Default : No
Forced : No

Text #65
ID : 86
Format : UTF-8
Codec ID : S_TEXT/UTF8
Codec ID/Info : UTF-8 Plain Text
Duration : 1 h 13 min
Bit rate : 3 b/s
Frame rate : 0.010 FPS
Count of elements : 43
Stream size : 1.74 KiB (0%)
Title : Forced
Language : Ukrainian
Default : No
Forced : Yes

Text #66
ID : 87
Format : UTF-8
Codec ID : S_TEXT/UTF8
Codec ID/Info : UTF-8 Plain Text
Duration : 1 h 13 min
Bit rate : 84 b/s
Frame rate : 0.240 FPS
Count of elements : 1052
Stream size : 45.4 KiB (0%)
Language : Ukrainian
Default : No
Forced : No

Text #67
ID : 88
Format : UTF-8
Codec ID : S_TEXT/UTF8
Codec ID/Info : UTF-8 Plain Text
Duration : 56 min 20 s
Bit rate : 3 b/s
Frame rate : 0.010 FPS
Count of elements : 34
Stream size : 1.48 KiB (0%)
Title : Forced
Language : Vietnamese
Default : No
Forced : Yes

Text #68
ID : 89
Format : UTF-8
Codec ID : S_TEXT/UTF8
Codec ID/Info : UTF-8 Plain Text
Duration : 1 h 13 min
Bit rate : 76 b/s
Frame rate : 0.228 FPS
Count of elements : 1002
Stream size : 40.7 KiB (0%)
Language : Vietnamese
Default : No
Forced : No

Text #69
ID : 90
Format : UTF-8
Codec ID : S_TEXT/UTF8
Codec ID/Info : UTF-8 Plain Text
Duration : 1 h 9 min
Bit rate : 98 b/s
Frame rate : 0.210 FPS
Count of elements : 872
Stream size : 50.1 KiB (0%)
Language : Vietnamese
Default : No
Forced : No

Text #70
ID : 91
Format : UTF-8
Codec ID : S_TEXT/UTF8
Codec ID/Info : UTF-8 Plain Text
Duration : 1 h 13 min
Bit rate : 63 b/s
Frame rate : 0.244 FPS
Count of elements : 1070
Stream size : 34.1 KiB (0%)
Title : Simplified
Language : Chinese
Default : No
Forced : No

Text #71
ID : 92
Format : UTF-8
Codec ID : S_TEXT/UTF8
Codec ID/Info : UTF-8 Plain Text
Duration : 1 h 13 min
Bit rate : 58 b/s
Frame rate : 0.256 FPS
Count of elements : 1124
Stream size : 31.1 KiB (0%)
Title : Traditional
Language : Chinese
Default : No
Forced : No

Menu
00:00:00.000 : en:Part 01
00:01:53.500 : en:Intro
00:02:43.250 : en:Part 02
01:12:36.450 : en:Credits





Stranger Things S04E02


Stranger Things S04E02


Stranger Things S04E02


Stranger Things S04E02


Stranger Things S04E02

All episodes