Featured TV Shows


The Americans S05E05

Posted By: Tavaz
SD / HDTV IMDb
The Americans S05E05

The Americans S05E05
HDTV | AVI | 640x360 | MP4V-ES @ 698 kbps | MPEG Audio @ 128 kbps | 46 min 22 s | 277 MiB
Genre: Crime, Drama, Thriller

Set during the Cold War period in the 1980s, The Americans is the story of Elizabeth and Philip Jennings, two Soviet KGB officers posing as an American married couple in the suburbs of Washington D.C. and their neighbor, Stan Beeman, an FBI Counterintelligence agent.

a6cee4a10d9b49a0a0343d6d61505d02.avi (277.3 MB)



General
Complete name : ./a6cee4a10d9b49a0a0343d6d61505d02.avi
Format : AVI
Format/Info : Audio Video Interleave
File size : 277 MiB
Duration : 46 min 22 s
Overall bit rate : 836 kb/s
Writing application : VirtualDubMod 1.5.10.2 (build 2542/release)
Writing library : VirtualDubMod build 2542/release

Video
ID : 0
Format : MPEG-4 Visual
Format profile : Simple@L3
Format settings, BVOP : No
Format settings, QPel : No
Format settings, GMC : No warppoints
Format settings, Matrix : Default (H.263)
Codec ID : XVID
Codec ID/Hint : XviD
Duration : 46 min 22 s
Bit rate : 699 kb/s
Width : 640 pixels
Height : 360 pixels
Display aspect ratio : 16:9
Frame rate : 23.976 (24000/1001) FPS
Color space : YUV
Chroma subsampling : 4:2:0
Bit depth : 8 bits
Scan type : Progressive
Compression mode : Lossy
Bits/(Pixel*Frame) : 0.127
Stream size : 232 MiB (84%)
Writing library : XviD 64

Audio
ID : 1
Format : MPEG Audio
Format version : Version 1
Format profile : Layer 3
Format settings : Joint stereo / MS Stereo
Mode : Joint stereo
Mode extension : MS Stereo
Codec ID : 55
Codec ID/Hint : MP3
Duration : 46 min 22 s
Bit rate mode : Constant
Bit rate : 128 kb/s
Channel(s) : 2 channels
Sampling rate : 48.0 kHz
Compression mode : Lossy
Stream size : 42.5 MiB (15%)
Alignment : Aligned on interleaves
Interleave, duration : 42 ms (1.00 video frame)
Interleave, preload duration : 504 ms





The Americans S05E05


The Americans S05E05


The Americans S05E05


The Americans S05E05


The Americans S05E05

All episodes