Featured TV Shows


The Americans S05E07

Posted By: Tavaz
SD / HDTV IMDb
The Americans S05E07

The Americans S05E07
HDTV | AVI | 640x360 | MP4V-ES @ 711 kbps | MPEG Audio @ 128 kbps | 43 min 18 s | 263 MiB
Genre: Crime, Drama, Thriller

Set during the Cold War period in the 1980s, The Americans is the story of Elizabeth and Philip Jennings, two Soviet KGB officers posing as an American married couple in the suburbs of Washington D.C. and their neighbor, Stan Beeman, an FBI Counterintelligence agent.

8d9bf06f9c1f45dcbed8a908353c0b97.avi (262.9 MB)



General
Complete name : ./8d9bf06f9c1f45dcbed8a908353c0b97.avi
Format : AVI
Format/Info : Audio Video Interleave
File size : 263 MiB
Duration : 43 min 18 s
Overall bit rate : 849 kb/s
Writing application : VirtualDubMod 1.5.10.2 (build 2542/release)
Writing library : VirtualDubMod build 2542/release

Video
ID : 0
Format : MPEG-4 Visual
Format profile : Simple@L3
Format settings, BVOP : No
Format settings, QPel : No
Format settings, GMC : No warppoints
Format settings, Matrix : Default (H.263)
Codec ID : XVID
Codec ID/Hint : XviD
Duration : 43 min 18 s
Bit rate : 711 kb/s
Width : 640 pixels
Height : 360 pixels
Display aspect ratio : 16:9
Frame rate : 23.976 (24000/1001) FPS
Color space : YUV
Chroma subsampling : 4:2:0
Bit depth : 8 bits
Scan type : Progressive
Compression mode : Lossy
Bits/(Pixel*Frame) : 0.129
Stream size : 220 MiB (84%)
Writing library : XviD 64

Audio
ID : 1
Format : MPEG Audio
Format version : Version 1
Format profile : Layer 3
Format settings : Joint stereo / MS Stereo
Mode : Joint stereo
Mode extension : MS Stereo
Codec ID : 55
Codec ID/Hint : MP3
Duration : 43 min 18 s
Bit rate mode : Constant
Bit rate : 128 kb/s
Channel(s) : 2 channels
Sampling rate : 48.0 kHz
Compression mode : Lossy
Stream size : 39.7 MiB (15%)
Alignment : Aligned on interleaves
Interleave, duration : 42 ms (1.00 video frame)
Interleave, preload duration : 504 ms





The Americans S05E07


The Americans S05E07


The Americans S05E07


The Americans S05E07


The Americans S05E07

All episodes