Featured TV Shows


The Americans S05E11

Posted By: Tavaz
SD / HDTV IMDb
The Americans S05E11

The Americans S05E11
HDTV | AVI | 640x360 | MP4V-ES @ 598 kbps | MPEG Audio @ 128 kbps | 42 min 38 s | 225 MiB
Genre: Crime, Drama, Thriller

Set during the Cold War period in the 1980s, The Americans is the story of Elizabeth and Philip Jennings, two Soviet KGB officers posing as an American married couple in the suburbs of Washington D.C. and their neighbor, Stan Beeman, an FBI Counterintelligence agent.

f33120e9fec646f0bb5d38c35ad4f213.avi (224.5 MB)



General
Complete name : ./f33120e9fec646f0bb5d38c35ad4f213.avi
Format : AVI
Format/Info : Audio Video Interleave
File size : 225 MiB
Duration : 42 min 38 s
Overall bit rate : 736 kb/s
Writing application : VirtualDubMod 1.5.10.2 (build 2542/release)
Writing library : VirtualDubMod build 2542/release

Video
ID : 0
Format : MPEG-4 Visual
Format profile : Simple@L3
Format settings, BVOP : No
Format settings, QPel : No
Format settings, GMC : No warppoints
Format settings, Matrix : Default (H.263)
Codec ID : XVID
Codec ID/Hint : XviD
Duration : 42 min 38 s
Bit rate : 599 kb/s
Width : 640 pixels
Height : 360 pixels
Display aspect ratio : 16:9
Frame rate : 23.976 (24000/1001) FPS
Color space : YUV
Chroma subsampling : 4:2:0
Bit depth : 8 bits
Scan type : Progressive
Compression mode : Lossy
Bits/(Pixel*Frame) : 0.108
Stream size : 183 MiB (81%)
Writing library : XviD 64

Audio
ID : 1
Format : MPEG Audio
Format version : Version 1
Format profile : Layer 3
Format settings : Joint stereo / MS Stereo
Mode : Joint stereo
Mode extension : MS Stereo
Codec ID : 55
Codec ID/Hint : MP3
Duration : 42 min 38 s
Bit rate mode : Constant
Bit rate : 128 kb/s
Channel(s) : 2 channels
Sampling rate : 48.0 kHz
Compression mode : Lossy
Stream size : 39.0 MiB (17%)
Alignment : Aligned on interleaves
Interleave, duration : 42 ms (1.00 video frame)
Interleave, preload duration : 504 ms





The Americans S05E11


The Americans S05E11


The Americans S05E11


The Americans S05E11


The Americans S05E11

All episodes