Featured TV Shows


The Americans S06E01

Posted By: Tavaz
SD / DVDRip IMDb
The Americans S06E01

The Americans S06E01
DVDRip | MKV | 720x406 | English | H264 @ 473 kbps | AAC @ 117 kbps | 54 min 7 s | 230 MiB
Genre: Crime, Drama

Set during the Cold War period in the 1980s, The Americans is the story of Elizabeth and Philip Jennings, two Soviet KGB officers posing as an American married couple in the suburbs of Washington D.C. and their neighbor, Stan Beeman, an FBI Counterintelligence agent.

The.Americans.2013.S06E01.DVDRip.x264-TAXES.mkv (229.8 MB)



General
Unique ID : 183582581880205567845810501847993890737 (0x8A1CB81B98E6CCFAB700F8D939ED37B1)
Complete name : ./The.Americans.2013.S06E01.DVDRip.x264-TAXES.mkv
Format : Matroska
Format version : Version 4 / Version 2
File size : 230 MiB
Duration : 54 min 7 s
Overall bit rate : 594 kb/s
Encoded date : UTC 2018-10-24 17:12:54
Writing application : mkvmerge v8.3.0 ('Over the Horizon') 64bit
Writing library : libebml v1.3.1 + libmatroska v1.4.2

Video
ID : 1
Format : AVC
Format/Info : Advanced Video Codec
Format profile : High@L3.1
Format settings : CABAC / 5 Ref Frames
Format settings, CABAC : Yes
Format settings, RefFrames : 5 frames
Codec ID : V_MPEG4/ISO/AVC
Duration : 54 min 7 s
Bit rate : 474 kb/s
Width : 720 pixels
Height : 406 pixels
Display aspect ratio : 16:9
Frame rate mode : Constant
Frame rate : 23.976 (24000/1001) FPS
Color space : YUV
Chroma subsampling : 4:2:0
Bit depth : 8 bits
Scan type : Progressive
Bits/(Pixel*Frame) : 0.068
Stream size : 183 MiB (80%)
Writing library : x264 core 157 r2935 545de2f
Encoding settings : cabac=1 / ref=5 / deblock=1:-2:-2 / analyse=0x3:0x113 / me=umh / subme=8 / psy=1 / psy_rd=1.00:0.00 / mixed_ref=1 / me_range=16 / chroma_me=1 / trellis=2 / 8x8dct=1 / cqm=0 / deadzone=21,11 / fast_pskip=1 / chroma_qp_offset=-2 / threads=12 / lookahead_threads=2 / sliced_threads=0 / nr=0 / decimate=1 / interlaced=0 / bluray_compat=0 / constrained_intra=0 / bframes=3 / b_pyramid=2 / b_adapt=1 / b_bias=0 / direct=3 / weightb=1 / open_gop=0 / weightp=2 / keyint=250 / keyint_min=23 / scenecut=40 / intra_refresh=0 / rc_lookahead=50 / rc=crf / mbtree=1 / crf=19.0 / qcomp=0.60 / qpmin=0 / qpmax=69 / qpstep=4 / ip_ratio=1.40 / aq=1:0.70
Language : English
Default : Yes
Forced : No

Audio
ID : 2
Format : AAC
Format/Info : Advanced Audio Codec
Format profile : LC
Codec ID : A_AAC-2
Duration : 54 min 6 s
Bit rate : 118 kb/s
Channel(s) : 2 channels
Channel positions : Front: L R
Sampling rate : 48.0 kHz
Frame rate : 46.875 FPS (1024 SPF)
Compression mode : Lossy
Stream size : 45.5 MiB (20%)
Language : English
Default : Yes
Forced : No





The Americans S06E01


The Americans S06E01


The Americans S06E01


The Americans S06E01


The Americans S06E01

All episodes