Featured TV Shows


The Americans S06E01

Posted By: Tavaz
1080p (FullHD) / WEBRip IMDb
The Americans S06E01

The Americans S06E01
WEBRip | MKV | 1920x1080 | English | H264 @ 12193 kbps | E-AC-3 @ 640 kbps | 54 min 5 s | 4.95 GiB
Genre: Crime, Drama, Thriller

Set during the Cold War period in the 1980s, The Americans is the story of Elizabeth and Philip Jennings, two Soviet KGB officers posing as an American married couple in the suburbs of Washington D.C. and their neighbor, Stan Beeman, an FBI Counterintelligence agent.

98345d01777642448f2f3f82f9cb45a7.mkv (4.9 GB)



General
Complete name : ./98345d01777642448f2f3f82f9cb45a7.mkv
Format : Matroska
Format version : Version 4 / Version 2
File size : 4.95 GiB
Duration : 54 min 5 s
Overall bit rate mode : Variable
Overall bit rate : 13.1 Mb/s
Encoded date : UTC 2018-03-29 00:06:01
Writing application : mkvmerge v20.0.0 (master: 2421163 / deflate: b81f064) [X86_64]
Writing library : libebml v1.3.5 + libmatroska v1.4.8

Video
ID : 1
Format : AVC
Format/Info : Advanced Video Codec
Format profile : High@L4
Format settings : CABAC / 4 Ref Frames
Format settings, CABAC : Yes
Format settings, RefFrames : 4 frames
Codec ID : V_MPEG4/ISO/AVC
Duration : 54 min 5 s
Bit rate mode : Variable
Bit rate : 12.2 Mb/s
Maximum bit rate : 15.0 Mb/s
Width : 1 920 pixels
Height : 1 080 pixels
Display aspect ratio : 16:9
Frame rate mode : Constant
Frame rate : 23.976 (24000/1001) FPS
Color space : YUV
Chroma subsampling : 4:2:0
Bit depth : 8 bits
Scan type : Progressive
Bits/(Pixel*Frame) : 0.245
Stream size : 4.61 GiB (93%)
Language : English
Default : Yes
Forced : No
Color range : Limited
Color primaries : BT.709
Transfer characteristics : BT.709
Matrix coefficients : BT.709

Audio
ID : 2
Format : E-AC-3
Format/Info : Enhanced Audio Coding 3
Format settings, Endianness : Big
Codec ID : A_EAC3
Duration : 54 min 5 s
Bit rate mode : Constant
Bit rate : 640 kb/s
Channel(s) : 6 channels
Channel positions : Front: L C R, Side: L R, LFE
Sampling rate : 48.0 kHz
Frame rate : 187.500 FPS (256 SPF)
Compression mode : Lossy
Stream size : 248 MiB (5%)
Language : English
Service kind : Complete Main
Default : Yes
Forced : No





The Americans S06E01


The Americans S06E01


The Americans S06E01


The Americans S06E01


The Americans S06E01

All episodes