Featured TV Shows


The Americans S06E04

Posted By: Tavaz
SD / DVDRip IMDb
The Americans S06E04

The Americans S06E04
DVDRip | MKV | 720x406 | English | H264 @ 446 kbps | AAC @ 117 kbps | 48 min 50 s | 198 MiB
Genre: Crime, Drama

Set during the Cold War period in the 1980s, The Americans is the story of Elizabeth and Philip Jennings, two Soviet KGB officers posing as an American married couple in the suburbs of Washington D.C. and their neighbor, Stan Beeman, an FBI Counterintelligence agent.

The.Americans.2013.S06E04.DVDRip.x264-TAXES.mkv (197.7 MB)



General
Unique ID : 214851953110432855082317048554949142892 (0xA1A2FB2381D63A8D88C77932E4B3696C)
Complete name : ./The.Americans.2013.S06E04.DVDRip.x264-TAXES.mkv
Format : Matroska
Format version : Version 4 / Version 2
File size : 198 MiB
Duration : 48 min 50 s
Overall bit rate : 566 kb/s
Encoded date : UTC 2018-10-24 17:45:32
Writing application : mkvmerge v8.3.0 ('Over the Horizon') 64bit
Writing library : libebml v1.3.1 + libmatroska v1.4.2

Video
ID : 1
Format : AVC
Format/Info : Advanced Video Codec
Format profile : High@L3.1
Format settings : CABAC / 5 Ref Frames
Format settings, CABAC : Yes
Format settings, RefFrames : 5 frames
Codec ID : V_MPEG4/ISO/AVC
Duration : 48 min 50 s
Bit rate : 447 kb/s
Width : 720 pixels
Height : 406 pixels
Display aspect ratio : 16:9
Frame rate mode : Constant
Frame rate : 23.976 (24000/1001) FPS
Color space : YUV
Chroma subsampling : 4:2:0
Bit depth : 8 bits
Scan type : Progressive
Bits/(Pixel*Frame) : 0.064
Stream size : 156 MiB (79%)
Writing library : x264 core 157 r2935 545de2f
Encoding settings : cabac=1 / ref=5 / deblock=1:-2:-2 / analyse=0x3:0x113 / me=umh / subme=8 / psy=1 / psy_rd=1.00:0.00 / mixed_ref=1 / me_range=16 / chroma_me=1 / trellis=2 / 8x8dct=1 / cqm=0 / deadzone=21,11 / fast_pskip=1 / chroma_qp_offset=-2 / threads=12 / lookahead_threads=2 / sliced_threads=0 / nr=0 / decimate=1 / interlaced=0 / bluray_compat=0 / constrained_intra=0 / bframes=3 / b_pyramid=2 / b_adapt=1 / b_bias=0 / direct=3 / weightb=1 / open_gop=0 / weightp=2 / keyint=250 / keyint_min=23 / scenecut=40 / intra_refresh=0 / rc_lookahead=50 / rc=crf / mbtree=1 / crf=19.0 / qcomp=0.60 / qpmin=0 / qpmax=69 / qpstep=4 / ip_ratio=1.40 / aq=1:0.70
Language : English
Default : Yes
Forced : No

Audio
ID : 2
Format : AAC
Format/Info : Advanced Audio Codec
Format profile : LC
Codec ID : A_AAC-2
Duration : 48 min 50 s
Bit rate : 117 kb/s
Channel(s) : 2 channels
Channel positions : Front: L R
Sampling rate : 48.0 kHz
Frame rate : 46.875 FPS (1024 SPF)
Compression mode : Lossy
Stream size : 40.9 MiB (21%)
Language : English
Default : Yes
Forced : No





The Americans S06E04


The Americans S06E04


The Americans S06E04


The Americans S06E04


The Americans S06E04

All episodes