Featured TV Shows


The Blacklist S05E21

Posted By: Tavaz
SD / HDTV IMDb
The Blacklist S05E21

The Blacklist S05E21
HDTV | MOV | 720x404 | Spanish | H264 @ 877 kbps | AAC @ 132 kbps | 41 min 2 s | 297 MiB
Genre: Crime, Drama, Mystery

Raymond "Red" Reddington, one of the FBI's most wanted fugitives, surrenders in person at FBI Headquarters in Washington, D.C. He claims that he and the FBI have the same interests: bringing down dangerous criminals and terrorists. In the last two decades, he's made a list of criminals and terrorists that matter the most but the FBI cannot find because it does not know they exist. Reddington calls this "The Blacklist". Reddington will co-operate, but insists that he will speak only to Elizabeth Keen, a rookie FBI profiler.

The.Blacklist.S05E21.SPANiSH.HDTV.x264-4FiRE.mp4 (297.3 MB)



General
Complete name : ./The.Blacklist.S05E21.SPANiSH.HDTV.x264-4FiRE.mp4
Format : MPEG-4
Format profile : Base Media
Codec ID : isom (isom/avc1)
File size : 297 MiB
Duration : 41 min 2 s
Overall bit rate mode : Variable
Overall bit rate : 1 013 kb/s
Encoded date : UTC 2018-05-22 13:13:47
Tagged date : UTC 2018-05-22 13:13:47

Video
ID : 1
Format : AVC
Format/Info : Advanced Video Codec
Format profile : High@L3.1
Format settings : CABAC / 5 Ref Frames
Format settings, CABAC : Yes
Format settings, RefFrames : 5 frames
Codec ID : avc1
Codec ID/Info : Advanced Video Coding
Duration : 41 min 2 s
Bit rate : 878 kb/s
Maximum bit rate : 7 695 kb/s
Width : 720 pixels
Height : 404 pixels
Display aspect ratio : 16:9
Frame rate mode : Constant
Frame rate : 25.000 FPS
Color space : YUV
Chroma subsampling : 4:2:0
Bit depth : 8 bits
Scan type : Progressive
Bits/(Pixel*Frame) : 0.121
Stream size : 258 MiB (87%)
Title : Video.By.4FiRE.TEAM
Writing library : x264 core 155 r2901 7d0ff22
Encoding settings : cabac=1 / ref=5 / deblock=1:1:1 / analyse=0x3:0x113 / me=umh / subme=8 / psy=1 / psy_rd=1.00:0.00 / mixed_ref=1 / me_range=16 / chroma_me=1 / trellis=1 / 8x8dct=1 / cqm=0 / deadzone=21,11 / fast_pskip=1 / chroma_qp_offset=-2 / threads=12 / lookahead_threads=2 / sliced_threads=0 / nr=0 / decimate=1 / interlaced=0 / bluray_compat=0 / constrained_intra=0 / bframes=3 / b_pyramid=2 / b_adapt=2 / b_bias=0 / direct=3 / weightb=1 / open_gop=0 / weightp=2 / keyint=250 / keyint_min=25 / scenecut=40 / intra_refresh=0 / rc_lookahead=50 / rc=crf / mbtree=1 / crf=19.0 / qcomp=0.60 / qpmin=0 / qpmax=69 / qpstep=4 / ip_ratio=1.40 / aq=1:1.00
Language : Spanish
Encoded date : UTC 2018-05-22 13:13:47
Tagged date : UTC 2018-05-22 13:13:51

Audio
ID : 2
Format : AAC
Format/Info : Advanced Audio Codec
Format profile : LC
Codec ID : mp4a-40-2
Duration : 41 min 2 s
Bit rate mode : Variable
Bit rate : 132 kb/s
Maximum bit rate : 171 kb/s
Channel(s) : 2 channels
Channel positions : Front: L R
Sampling rate : 48.0 kHz
Frame rate : 46.875 FPS (1024 SPF)
Compression mode : Lossy
Stream size : 38.3 MiB (13%)
Title : 4FiRE.Spanish
Language : Spanish
Encoded date : UTC 2018-05-22 11:57:01
Tagged date : UTC 2018-05-22 13:13:51





The Blacklist S05E21


The Blacklist S05E21


The Blacklist S05E21


The Blacklist S05E21


The Blacklist S05E21

All episodes