Featured TV Shows


The City and The City S01E02

Posted By: Tavaz
720p (HD) / HDTV IMDb
The City and The City S01E02

The City and The City S01E02
HDTV | MKV | 1280x532 | English | H264 @ 1573 kbps | AC-3 @ 192 kbps | 58 min 49 s | 758 MiB
Genre: Drama

When the body of a foreign student is discovered in the streets of the down-at-heel city of Besźel, it’s just another day’s work for Inspector Tyador Borlú of the Extreme Crime Squad. But he uncovers evidence that the murdered girl came from Ul Qoma, a city that shares a dangerous and volatile relationship with Besźel, and this case will challenge everything Borlú holds dear.

the.city.and.the.city.s01e02.720p.hdtv.x264-mtb.mkv (757.9 MB)



General
Complete name : ./the.city.and.the.city.s01e02.720p.hdtv.x264-mtb.mkv
Format : Matroska
Format version : Version 4 / Version 2
File size : 758 MiB
Duration : 58 min 49 s
Overall bit rate : 1 802 kb/s
Writing application : no_variable_data
Writing library : no_variable_data
Tool : Custom Encoder

Video
ID : 1
Format : AVC
Format/Info : Advanced Video Codec
Format profile : High@L4.1
Format settings : CABAC / 5 Ref Frames
Format settings, CABAC : Yes
Format settings, RefFrames : 5 frames
Format settings, GOP : M=2, N=15
Codec ID : V_MPEG4/ISO/AVC
Duration : 58 min 49 s
Bit rate : 1 574 kb/s
Width : 1 280 pixels
Height : 532 pixels
Display aspect ratio : 2.40:1
Frame rate mode : Constant
Frame rate : 25.000 FPS
Color space : YUV
Chroma subsampling : 4:2:0
Bit depth : 8 bits
Scan type : Progressive
Bits/(Pixel*Frame) : 0.092
Stream size : 662 MiB (87%)
Writing library : x264 core 155 r2901 7d0ff22
Encoding settings : cabac=1 / ref=5 / deblock=1:0:0 / analyse=0x3:0x113 / me=hex / subme=8 / psy=1 / psy_rd=1.00:0.00 / mixed_ref=1 / me_range=16 / chroma_me=1 / trellis=2 / 8x8dct=1 / cqm=0 / deadzone=21,11 / fast_pskip=1 / chroma_qp_offset=-2 / threads=12 / lookahead_threads=2 / sliced_threads=0 / nr=0 / decimate=1 / interlaced=0 / bluray_compat=0 / constrained_intra=0 / bframes=3 / b_pyramid=2 / b_adapt=1 / b_bias=0 / direct=3 / weightb=1 / open_gop=0 / weightp=2 / keyint=250 / keyint_min=25 / scenecut=40 / intra_refresh=0 / rc_lookahead=50 / rc=crf / mbtree=1 / crf=18.0 / qcomp=0.60 / qpmin=0 / qpmax=69 / qpstep=4 / ip_ratio=1.40 / aq=1:1.00
Language : English
Default : Yes
Forced : No
Color range : Limited
Color primaries : BT.709
Transfer characteristics : BT.709
Matrix coefficients : BT.709

Audio
ID : 2
Format : AC-3
Format/Info : Audio Coding 3
Format settings, Endianness : Big
Codec ID : A_AC3
Duration : 58 min 49 s
Bit rate mode : Constant
Bit rate : 192 kb/s
Channel(s) : 2 channels
Channel positions : Front: L R
Sampling rate : 48.0 kHz
Frame rate : 31.250 FPS (1536 SPF)
Bit depth : 16 bits
Compression mode : Lossy
Stream size : 80.8 MiB (11%)
Language : English
Service kind : Complete Main
Default : Yes
Forced : No





The City and The City S01E02


The City and The City S01E02


The City and The City S01E02


The City and The City S01E02


The City and The City S01E02

All episodes