Featured TV Shows


The City and The City S01E01

Posted By: Tavaz
SD / HDTV IMDb
The City and The City S01E01

The City and The City S01E01
HDTV | MKV | 720x298 | English | H264 @ 451 kbps | AC-3 @ 192 kbps | 57 min 42 s | 271 MiB
Genre: Drama

When the body of a foreign student is discovered in the streets of the down-at-heel city of Besźel, it’s just another day’s work for Inspector Tyador Borlú of the Extreme Crime Squad. But he uncovers evidence that the murdered girl came from Ul Qoma, a city that shares a dangerous and volatile relationship with Besźel, and this case will challenge everything Borlú holds dear.

The Ci S01E01 German.mkv (271.2 MB)



General
Unique ID : 202976254315133668265090724516862022260 (0x98B3CDFB7A7F650193F9CB5274FED274)
Complete name : ./The Ci S01E01 German/The Ci S01E01 German.mkv
Format : Matroska
Format version : Version 1
File size : 271 MiB
Duration : 57 min 42 s
Overall bit rate : 657 kb/s
Encoded date : UTC 2018-12-17 16:04:33
Writing application : mkvmerge v2.2.0 ('Turn It On Again') built on Mar 4 2008 12:58:26
Writing library : libebml v0.7.7 + libmatroska v0.8.1

Video
ID : 1
Format : AVC
Format/Info : Advanced Video Codec
Format profile : High@L3.1
Format settings : CABAC / 5 Ref Frames
Format settings, CABAC : Yes
Format settings, RefFrames : 5 frames
Codec ID : V_MPEG4/ISO/AVC
Duration : 57 min 42 s
Bit rate : 452 kb/s
Width : 720 pixels
Height : 298 pixels
Display aspect ratio : 2.40:1
Frame rate mode : Constant
Frame rate : 25.000 FPS
Color space : YUV
Chroma subsampling : 4:2:0
Bit depth : 8 bits
Scan type : Progressive
Bits/(Pixel*Frame) : 0.084
Stream size : 187 MiB (69%)
Writing library : x264 core 152 r2851 ba24899
Encoding settings : cabac=1 / ref=5 / deblock=1:0:0 / analyse=0x3:0x113 / me=hex / subme=8 / psy=1 / psy_rd=1.00:0.00 / mixed_ref=1 / me_range=16 / chroma_me=1 / trellis=2 / 8x8dct=1 / cqm=0 / deadzone=21,11 / fast_pskip=1 / chroma_qp_offset=-2 / threads=6 / lookahead_threads=1 / sliced_threads=0 / nr=0 / decimate=1 / interlaced=0 / bluray_compat=0 / constrained_intra=0 / bframes=3 / b_pyramid=2 / b_adapt=1 / b_bias=0 / direct=3 / weightb=1 / open_gop=0 / weightp=2 / keyint=250 / keyint_min=25 / scenecut=40 / intra_refresh=0 / rc_lookahead=50 / rc=crf / mbtree=1 / crf=19.0 / qcomp=0.60 / qpmin=0 / qpmax=69 / qpstep=4 / ip_ratio=1.40 / aq=1:1.00
Default : Yes
Forced : No

Audio
ID : 2
Format : AC-3
Format/Info : Audio Coding 3
Format settings, Endianness : Big
Codec ID : A_AC3
Duration : 57 min 42 s
Bit rate mode : Constant
Bit rate : 192 kb/s
Channel(s) : 2 channels
Channel positions : Front: L R
Sampling rate : 48.0 kHz
Frame rate : 31.250 FPS (1536 SPF)
Bit depth : 16 bits
Compression mode : Lossy
Stream size : 79.3 MiB (29%)
Service kind : Complete Main
Default : Yes
Forced : No





The City and The City S01E01


The City and The City S01E01


The City and The City S01E01


The City and The City S01E01


The City and The City S01E01

All episodes