Featured TV Shows


The City and The City S01E01

Posted By: Tavaz
1080p (FullHD) / WEB-DL IMDb
The City and The City S01E01

The City and The City S01E01
WEB-DL | MKV | 1920x1080 | English | H264 @ 7244 kbps | E-AC-3 @ 224 kbps | 57 min 51 s | 3.02 GiB
Genre: Drama

When the body of a foreign student is discovered in the streets of the down-at-heel city of Besźel, it’s just another day’s work for Inspector Tyador Borlú of the Extreme Crime Squad. But he uncovers evidence that the murdered girl came from Ul Qoma, a city that shares a dangerous and volatile relationship with Besźel, and this case will challenge everything Borlú holds dear.

The.City.and.The.City.S01E01.Beszel.1080p.AMZN.WEB-DL.DDP2.0.H.264-NTb.mkv (3.0 GB)



General
Unique ID : 212266992615795097175865045538275065084 (0x9FB122BF18526406ABC5B4BE9267FCFC)
Complete name : ./The.City.and.The.City.S01E01.Beszel.1080p.AMZN.WEB-DL.DDP2.0.H.264-NTb.mkv
Format : Matroska
Format version : Version 4 / Version 2
File size : 3.02 GiB
Duration : 57 min 51 s
Overall bit rate mode : Variable
Overall bit rate : 7 470 kb/s
Encoded date : UTC 2018-04-11 00:07:21
Writing application : mkvmerge v13.0.0 ('The Juggler') 64bit
Writing library : libebml v1.3.4 + libmatroska v1.4.5

Video
ID : 1
Format : AVC
Format/Info : Advanced Video Codec
Format profile : High@L4
Format settings : CABAC / 4 Ref Frames
Format settings, CABAC : Yes
Format settings, RefFrames : 4 frames
Codec ID : V_MPEG4/ISO/AVC
Duration : 57 min 51 s
Bit rate mode : Variable
Bit rate : 7 244 kb/s
Maximum bit rate : 15.0 Mb/s
Width : 1 920 pixels
Height : 1 080 pixels
Display aspect ratio : 16:9
Frame rate mode : Constant
Frame rate : 25.000 FPS
Color space : YUV
Chroma subsampling : 4:2:0
Bit depth : 8 bits
Scan type : Progressive
Bits/(Pixel*Frame) : 0.140
Stream size : 2.93 GiB (97%)
Default : Yes
Forced : No
Color range : Limited
Color primaries : BT.709
Transfer characteristics : BT.709
Matrix coefficients : BT.709

Audio
ID : 2
Format : E-AC-3
Format/Info : Enhanced Audio Coding 3
Format settings, Endianness : Big
Codec ID : A_EAC3
Duration : 57 min 51 s
Bit rate mode : Constant
Bit rate : 224 kb/s
Channel(s) : 2 channels
Channel positions : Front: L R
Sampling rate : 48.0 kHz
Frame rate : 187.500 FPS (256 SPF)
Compression mode : Lossy
Stream size : 92.7 MiB (3%)
Language : English
Service kind : Complete Main
Default : Yes
Forced : No





The City and The City S01E01


The City and The City S01E01


The City and The City S01E01


The City and The City S01E01


The City and The City S01E01

All episodes