Featured TV Shows


The City and the City S01E02

Posted By: Tavaz
SD / HDTV IMDb
The City and the City S01E02

The City and the City S01E02
HDTV | MKV | 720x300 | English | H264 @ 484 kbps | AC-3 @ 192 kbps | 58 min 49 s | 291 MiB
Genre: Drama, Krimi

In den Straßen der Stadt Besźel wird die Leiche einer ausländischen Schülerin entdeckt. Dies ist ein Fall für Inspector Tyador Borlú von der Extreme Crime Squad. Bei seinen Untersuchungen findet er heraus, dass das tote Mädchen aus einer anderen Stadt namens Ul Qoma gekommen war, mit der Besźel nicht die besten Beziehungen unterhält.

The Ci S01E02 German.mkv (290.6 MB)



General
Unique ID : 228973294592204567322035948148266009010 (0xAC42A7071858A215A2532A5B6BE281B2)
Complete name : ./The Ci S01E02 German/The Ci S01E02 German.mkv
Format : Matroska
Format version : Version 1
File size : 291 MiB
Duration : 58 min 49 s
Overall bit rate : 691 kb/s
Encoded date : UTC 2018-12-21 20:26:07
Writing application : mkvmerge v2.2.0 ('Turn It On Again') built on Mar 4 2008 12:58:26
Writing library : libebml v0.7.7 + libmatroska v0.8.1

Video
ID : 1
Format : AVC
Format/Info : Advanced Video Codec
Format profile : High@L3.1
Format settings : CABAC / 5 Ref Frames
Format settings, CABAC : Yes
Format settings, RefFrames : 5 frames
Codec ID : V_MPEG4/ISO/AVC
Duration : 58 min 49 s
Bit rate : 485 kb/s
Width : 720 pixels
Height : 300 pixels
Display aspect ratio : 2.40:1
Frame rate mode : Constant
Frame rate : 25.000 FPS
Color space : YUV
Chroma subsampling : 4:2:0
Bit depth : 8 bits
Scan type : Progressive
Bits/(Pixel*Frame) : 0.090
Stream size : 204 MiB (70%)
Writing library : x264 core 152 r2851 ba24899
Encoding settings : cabac=1 / ref=5 / deblock=1:0:0 / analyse=0x3:0x113 / me=hex / subme=8 / psy=1 / psy_rd=1.00:0.00 / mixed_ref=1 / me_range=16 / chroma_me=1 / trellis=2 / 8x8dct=1 / cqm=0 / deadzone=21,11 / fast_pskip=1 / chroma_qp_offset=-2 / threads=6 / lookahead_threads=1 / sliced_threads=0 / nr=0 / decimate=1 / interlaced=0 / bluray_compat=0 / constrained_intra=0 / bframes=3 / b_pyramid=2 / b_adapt=1 / b_bias=0 / direct=3 / weightb=1 / open_gop=0 / weightp=2 / keyint=250 / keyint_min=25 / scenecut=40 / intra_refresh=0 / rc_lookahead=50 / rc=crf / mbtree=1 / crf=19.0 / qcomp=0.60 / qpmin=0 / qpmax=69 / qpstep=4 / ip_ratio=1.40 / aq=1:1.00
Default : Yes
Forced : No

Audio
ID : 2
Format : AC-3
Format/Info : Audio Coding 3
Format settings, Endianness : Big
Codec ID : A_AC3
Duration : 58 min 49 s
Bit rate mode : Constant
Bit rate : 192 kb/s
Channel(s) : 2 channels
Channel positions : Front: L R
Sampling rate : 48.0 kHz
Frame rate : 31.250 FPS (1536 SPF)
Bit depth : 16 bits
Compression mode : Lossy
Stream size : 80.8 MiB (28%)
Service kind : Complete Main
Default : Yes
Forced : No





The City and the City S01E02


The City and the City S01E02


The City and the City S01E02


The City and the City S01E02


The City and the City S01E02

All episodes