Featured TV Shows


The Deuce S01E02

Posted By: Tavaz
SD / WEBRip IMDb
The Deuce S01E02

The Deuce S01E02
WEBRip | AVI | 640x360 | MP4V-ES @ 1307 kbps | MPEG Audio @ 128 kbps | 59 min 44 s | 617 MiB
Genre: Drama

The story of the legalization and subsequent rise of the porn industry in New York’s Times Square from the early ’70s through the mid ’80s, exploring the rough-and-tumble world that existed there until the rise of HIV, the violence of the cocaine epidemic and the renewed real estate market ended the bawdy turbulence of the area.

The.Deuce.S01E02.REPACK.WEBRip.HebSubs.XviD-AFG.avi (617.4 MB)



General
Complete name : ./The.Deuce.S01E02.REPACK.WEBRip.HebSubs.XviD-AFG.avi
Format : AVI
Format/Info : Audio Video Interleave
File size : 617 MiB
Duration : 59 min 44 s
Overall bit rate : 1 445 kb/s
Writing application : VirtualDubMod 1.5.10.2 (build 2542/release)
Writing library : VirtualDubMod build 2542/release

Video
ID : 0
Format : MPEG-4 Visual
Format profile : Simple@L3
Format settings, BVOP : No
Format settings, QPel : No
Format settings, GMC : No warppoints
Format settings, Matrix : Default (H.263)
Codec ID : XVID
Codec ID/Hint : XviD
Duration : 59 min 44 s
Bit rate : 1 308 kb/s
Width : 640 pixels
Height : 360 pixels
Display aspect ratio : 16:9
Frame rate : 23.976 (24000/1001) FPS
Color space : YUV
Chroma subsampling : 4:2:0
Bit depth : 8 bits
Scan type : Progressive
Compression mode : Lossy
Bits/(Pixel*Frame) : 0.237
Stream size : 559 MiB (90%)
Writing library : XviD 64

Audio
ID : 1
Format : MPEG Audio
Format version : Version 1
Format profile : Layer 3
Format settings : Joint stereo / MS Stereo
Mode : Joint stereo
Mode extension : MS Stereo
Codec ID : 55
Codec ID/Hint : MP3
Duration : 59 min 44 s
Bit rate mode : Constant
Bit rate : 128 kb/s
Channel(s) : 2 channels
Sampling rate : 48.0 kHz
Compression mode : Lossy
Stream size : 54.7 MiB (9%)
Alignment : Aligned on interleaves
Interleave, duration : 42 ms (1.00 video frame)
Interleave, preload duration : 504 ms





The Deuce S01E02


The Deuce S01E02


The Deuce S01E02


The Deuce S01E02


The Deuce S01E02

All episodes