Featured TV Shows


The Deuce: La via del porno S03E08

Posted By: Tavaz
1080p (FullHD) / WEB-DL IMDb
The Deuce: La via del porno S03E08

The Deuce: La via del porno S03E08
WEB-DL | MKV | 1920x1080 | English | H264 @ 10000 kbps | E-AC-3 @ 192 kbps | 1 h 11 min | 4.92 GiB
Subtitles: English
Genre: Dramma


Storia della legalizzazione e della conseguente ascesa dell'industria del porno a Times Square a New York dai primi anni '70 alla metà degli anni '80, che esplora il difficile ambiente lì esistente fino a quando l'ascesa dell'HIV, la violenta diffusione della cocaina e il rinnovato mercato immobiliare hanno messo fine all'oscura turbolenza in quell'area.

fef1b955fbce46a0964da28963b078c3.mkv (4.9 GB)



General
Unique ID : 67751604096938001804088101961703529065 (0x32F87BFBCF33654F469177FFF20A9A69)
Complete name : ./fef1b955fbce46a0964da28963b078c3.mkv
Format : Matroska
Format version : Version 4 / Version 2
File size : 4.92 GiB
Duration : 1 h 11 min
Overall bit rate : 9 800 kb/s
Encoded date : UTC 2019-10-29 01:28:37
Writing application : mkvmerge v32.0.0 ('Astral Progressions') 64-bit
Writing library : libebml v1.3.7 + libmatroska v1.5.0

Video
ID : 1
Format : AVC
Format/Info : Advanced Video Codec
Format profile : High@L4
Format settings : CABAC / 4 Ref Frames
Format settings, CABAC : Yes
Format settings, RefFrames : 4 frames
Codec ID : V_MPEG4/ISO/AVC
Duration : 1 h 11 min
Bit rate mode : Constant
Bit rate : 10 000 kb/s
Width : 1 920 pixels
Height : 1 080 pixels
Display aspect ratio : 16:9
Frame rate mode : Constant
Frame rate : 23.976 (24000/1001) FPS
Color space : YUV
Chroma subsampling : 4:2:0
Bit depth : 8 bits
Scan type : Progressive
Bits/(Pixel*Frame) : 0.201
Stream size : 4.82 GiB (98%)
Default : Yes
Forced : No
Color range : Limited
Color primaries : BT.709
Transfer characteristics : BT.709
Matrix coefficients : BT.709

Audio
ID : 2
Format : E-AC-3
Format/Info : Enhanced Audio Coding 3
Format settings, Endianness : Big
Codec ID : A_EAC3
Duration : 1 h 11 min
Bit rate mode : Constant
Bit rate : 192 kb/s
Channel(s) : 6 channels
Channel positions : Front: L C R, Side: L R, LFE
Sampling rate : 48.0 kHz
Frame rate : 187.500 FPS (256 SPF)
Compression mode : Lossy
Delay relative to video : 6 ms
Stream size : 98.7 MiB (2%)
Language : English
Service kind : Complete Main
Default : Yes
Forced : No

Text
ID : 3
Format : UTF-8
Codec ID : S_TEXT/UTF8
Codec ID/Info : UTF-8 Plain Text
Duration : 1 h 10 min
Bit rate : 76 b/s
Count of elements : 1188
Stream size : 39.6 KiB (0%)
Title : SDH
Language : English
Default : No
Forced : No





The Deuce: La via del porno S03E08


The Deuce: La via del porno S03E08


The Deuce: La via del porno S03E08


The Deuce: La via del porno S03E08


The Deuce: La via del porno S03E08

All episodes