Featured TV Shows


The Deuce S01E08

Posted By: Tavaz
SD / WEBRip IMDb
The Deuce S01E08

The Deuce S01E08
WEBRip | AVI | 640x360 | MP4V-ES @ 1398 kbps | MPEG Audio @ 128 kbps | 1 h 11 min | 783 MiB
Genre: Drama

The story of the legalization and subsequent rise of the porn industry in New York’s Times Square from the early ’70s through the mid ’80s, exploring the rough-and-tumble world that existed there until the rise of HIV, the violence of the cocaine epidemic and the renewed real estate market ended the bawdy turbulence of the area.

The.Deuce.S01E08.WEBRip.HebSubs.XviD-AFG.avi (783.1 MB)



General
Complete name : ./The.Deuce.S01E08.WEBRip.HebSubs.XviD-AFG.avi
Format : AVI
Format/Info : Audio Video Interleave
File size : 783 MiB
Duration : 1 h 11 min
Overall bit rate : 1 535 kb/s
Writing application : VirtualDubMod 1.5.10.2 (build 2542/release)
Writing library : VirtualDubMod build 2542/release

Video
ID : 0
Format : MPEG-4 Visual
Format profile : Simple@L3
Format settings, BVOP : No
Format settings, QPel : No
Format settings, GMC : No warppoints
Format settings, Matrix : Default (H.263)
Codec ID : XVID
Codec ID/Hint : XviD
Duration : 1 h 11 min
Bit rate : 1 398 kb/s
Width : 640 pixels
Height : 360 pixels
Display aspect ratio : 16:9
Frame rate : 23.976 (24000/1001) FPS
Color space : YUV
Chroma subsampling : 4:2:0
Bit depth : 8 bits
Scan type : Progressive
Compression mode : Lossy
Bits/(Pixel*Frame) : 0.253
Stream size : 713 MiB (91%)
Writing library : XviD 64

Audio
ID : 1
Format : MPEG Audio
Format version : Version 1
Format profile : Layer 3
Format settings : Joint stereo / MS Stereo
Mode : Joint stereo
Mode extension : MS Stereo
Codec ID : 55
Codec ID/Hint : MP3
Duration : 1 h 11 min
Bit rate mode : Constant
Bit rate : 128 kb/s
Channel(s) : 2 channels
Sampling rate : 48.0 kHz
Compression mode : Lossy
Stream size : 65.3 MiB (8%)
Alignment : Aligned on interleaves
Interleave, duration : 42 ms (1.00 video frame)
Interleave, preload duration : 504 ms





The Deuce S01E08


The Deuce S01E08


The Deuce S01E08


The Deuce S01E08


The Deuce S01E08

All episodes