Featured TV Shows


The Deuce S02E03

Posted By: Tavaz
720p (HD) / WEBRip IMDb
The Deuce S02E03

The Deuce S02E03
WEBRip | MKV | 1280x720 | English | H264 @ 2093 kbps | E-AC-3 @ 640 kbps | 59 min 2 s | 1.13 GiB
Subtitles: English
Genre: Drama

The story of the legalization and subsequent rise of the porn industry in New York’s Times Square from the early ’70s through the mid ’80s, exploring the rough-and-tumble world that existed there until the rise of HIV, the violence of the cocaine epidemic and the renewed real estate market ended the bawdy turbulence of the area.

fee56ebc54e740199e08d11bda0a2bbe.mkv (1.1 GB)



General
Unique ID : 48158264085640999768608482225654185358 (0x243AF1BCCEBAFED373EF4083B6A1BD8E)
Complete name : ./fee56ebc54e740199e08d11bda0a2bbe.mkv
Format : Matroska
Format version : Version 4 / Version 2
File size : 1.13 GiB
Duration : 59 min 2 s
Overall bit rate : 2 735 kb/s
Encoded date : UTC 2018-09-24 14:00:09
Writing application : mkvmerge v26.0.0 ('In The Game') 64-bit
Writing library : libebml v1.3.6 + libmatroska v1.4.9

Video
ID : 1
Format : AVC
Format/Info : Advanced Video Codec
Format profile : High@L3.1
Format settings : CABAC / 5 Ref Frames
Format settings, CABAC : Yes
Format settings, RefFrames : 5 frames
Codec ID : V_MPEG4/ISO/AVC
Duration : 59 min 2 s
Bit rate : 2 093 kb/s
Width : 1 280 pixels
Height : 720 pixels
Display aspect ratio : 16:9
Frame rate mode : Constant
Frame rate : 23.976 (24000/1001) FPS
Color space : YUV
Chroma subsampling : 4:2:0
Bit depth : 8 bits
Scan type : Progressive
Bits/(Pixel*Frame) : 0.095
Stream size : 884 MiB (77%)
Default : Yes
Forced : No
Color range : Limited
Color primaries : BT.709
Transfer characteristics : BT.709
Matrix coefficients : BT.709

Audio
ID : 2
Format : E-AC-3
Format/Info : Enhanced Audio Coding 3
Format settings, Endianness : Big
Codec ID : A_EAC3
Duration : 59 min 2 s
Bit rate mode : Constant
Bit rate : 640 kb/s
Channel(s) : 6 channels
Channel positions : Front: L C R, Side: L R, LFE
Sampling rate : 48.0 kHz
Frame rate : 187.500 FPS (256 SPF)
Compression mode : Lossy
Delay relative to video : 3 ms
Stream size : 270 MiB (23%)
Title : English
Language : English
Service kind : Complete Main
Default : Yes
Forced : No

Text
ID : 3
Format : UTF-8
Codec ID : S_TEXT/UTF8
Codec ID/Info : UTF-8 Plain Text
Duration : 57 min 51 s
Bit rate : 80 b/s
Count of elements : 1094
Stream size : 34.0 KiB (0%)
Title : English (SDH)
Language : English
Default : No
Forced : No





The Deuce S02E03


The Deuce S02E03


The Deuce S02E03


The Deuce S02E03


The Deuce S02E03

All episodes