Featured TV Shows


The Deuce S02E05

Posted By: Tavaz
1080p (FullHD) / WEBRip IMDb
The Deuce S02E05

The Deuce S02E05
WEBRip | MKV | 1920x1080 | English | H264 @ 10010 kbps | E-AC-3 @ 640 kbps | 1 h 0 min | 4.47 GiB
Subtitles: English
Genre: Drama

The story of the legalization and subsequent rise of the porn industry in New York’s Times Square from the early ’70s through the mid ’80s, exploring the rough-and-tumble world that existed there until the rise of HIV, the violence of the cocaine epidemic and the renewed real estate market ended the bawdy turbulence of the area.

The.Deuce.S02E05.All.Youll.Be.Eating.is.Cannibals.1080p.AMZN.WEB-DL.DDP5.1.H.264-NTb.mkv (4.5 GB)



General
Unique ID : 236149318985787367161440579092826524275 (0xB1A8B458ADE3EC271A0DD76C4BA78A73)
Complete name : ./The.Deuce.S02E05.All.Youll.Be.Eating.is.Cannibals.1080p.AMZN.WEB-DL.DDP5.1.H.264-NTb.mkv
Format : Matroska
Format version : Version 4 / Version 2
File size : 4.47 GiB
Duration : 1 h 0 min
Overall bit rate : 10.7 Mb/s
Encoded date : UTC 2018-10-08 01:09:18
Writing application : mkvmerge v19.0.0 ('Brave Captain') 64-bit
Writing library : libebml v1.3.5 + libmatroska v1.4.8

Video
ID : 1
Format : AVC
Format/Info : Advanced Video Codec
Format profile : High@L4
Format settings : CABAC / 4 Ref Frames
Format settings, CABAC : Yes
Format settings, RefFrames : 4 frames
Codec ID : V_MPEG4/ISO/AVC
Duration : 1 h 0 min
Bit rate : 10.0 Mb/s
Width : 1 920 pixels
Height : 1 080 pixels
Display aspect ratio : 16:9
Frame rate mode : Constant
Frame rate : 23.976 (24000/1001) FPS
Color space : YUV
Chroma subsampling : 4:2:0
Bit depth : 8 bits
Scan type : Progressive
Bits/(Pixel*Frame) : 0.201
Stream size : 4.20 GiB (94%)
Default : Yes
Forced : No
Color range : Limited
Color primaries : BT.709
Transfer characteristics : BT.709
Matrix coefficients : BT.709

Audio
ID : 2
Format : E-AC-3
Format/Info : Enhanced Audio Coding 3
Format settings, Endianness : Big
Codec ID : A_EAC3
Duration : 1 h 0 min
Bit rate mode : Constant
Bit rate : 640 kb/s
Channel(s) : 6 channels
Channel positions : Front: L C R, Side: L R, LFE
Sampling rate : 48.0 kHz
Frame rate : 187.500 FPS (256 SPF)
Compression mode : Lossy
Delay relative to video : 28 ms
Stream size : 275 MiB (6%)
Language : English
Service kind : Complete Main
Default : Yes
Forced : No

Text
ID : 3
Format : UTF-8
Codec ID : S_TEXT/UTF8
Codec ID/Info : UTF-8 Plain Text
Duration : 59 min 53 s
Bit rate : 88 b/s
Count of elements : 1224
Stream size : 38.7 KiB (0%)
Title : SDH
Language : English
Default : No
Forced : No





The Deuce S02E05


The Deuce S02E05


The Deuce S02E05


The Deuce S02E05


The Deuce S02E05

All episodes