Featured TV Shows


The Deuce S02E07

Posted By: Tavaz
720p (HD) / WEBRip IMDb
The Deuce S02E07

The Deuce S02E07
WEBRip | MKV | 1280x720 | English | H264 @ 2158 kbps | E-AC-3 @ 640 kbps | 59 min 6 s | 1.16 GiB
Subtitles: English
Genre: Drama

The story of the legalization and subsequent rise of the porn industry in New York’s Times Square from the early ’70s through the mid ’80s, exploring the rough-and-tumble world that existed there until the rise of HIV, the violence of the cocaine epidemic and the renewed real estate market ended the bawdy turbulence of the area.

416a8ca48212470a8017b1bba27ab0d2.mkv (1.2 GB)



General
Unique ID : 88382691362830222913652193105191557575 (0x427DE31EA12F1796D1D1CCC2504AD9C7)
Complete name : ./416a8ca48212470a8017b1bba27ab0d2.mkv
Format : Matroska
Format version : Version 4 / Version 2
File size : 1.16 GiB
Duration : 59 min 6 s
Overall bit rate : 2 801 kb/s
Encoded date : UTC 2018-10-22 01:02:12
Writing application : mkvmerge v28.0.0 ('Voice In My Head') 64-bit
Writing library : libebml v1.3.6 + libmatroska v1.4.9

Video
ID : 1
Format : AVC
Format/Info : Advanced Video Codec
Format profile : High@L3.1
Format settings : CABAC / 5 Ref Frames
Format settings, CABAC : Yes
Format settings, RefFrames : 5 frames
Codec ID : V_MPEG4/ISO/AVC
Duration : 59 min 6 s
Bit rate : 2 159 kb/s
Width : 1 280 pixels
Height : 720 pixels
Display aspect ratio : 16:9
Frame rate mode : Constant
Frame rate : 23.976 (24000/1001) FPS
Color space : YUV
Chroma subsampling : 4:2:0
Bit depth : 8 bits
Scan type : Progressive
Bits/(Pixel*Frame) : 0.098
Stream size : 913 MiB (77%)
Default : Yes
Forced : No
Color range : Limited
Color primaries : BT.709
Transfer characteristics : BT.709
Matrix coefficients : BT.709

Audio
ID : 2
Format : E-AC-3
Format/Info : Enhanced Audio Coding 3
Format settings, Endianness : Big
Codec ID : A_EAC3
Duration : 59 min 6 s
Bit rate mode : Constant
Bit rate : 640 kb/s
Channel(s) : 6 channels
Channel positions : Front: L C R, Side: L R, LFE
Sampling rate : 48.0 kHz
Frame rate : 187.500 FPS (256 SPF)
Compression mode : Lossy
Stream size : 271 MiB (23%)
Title : English
Language : English
Service kind : Complete Main
Default : Yes
Forced : No

Text
ID : 3
Format : UTF-8
Codec ID : S_TEXT/UTF8
Codec ID/Info : UTF-8 Plain Text
Duration : 57 min 56 s
Bit rate : 67 b/s
Count of elements : 989
Stream size : 28.7 KiB (0%)
Title : English (SDH)
Language : English
Default : No
Forced : No





The Deuce S02E07


The Deuce S02E07


The Deuce S02E07


The Deuce S02E07


The Deuce S02E07

All episodes