Featured TV Shows


The Deuce S02E09

Posted By: Tavaz
720p (HD) / WEB-DL IMDb
The Deuce S02E09

The Deuce S02E09
WEB-DL | MKV | 1280x720 | English | H264 @ 2152 kbps | E-AC-3 @ 640 kbps | 1 h 13 min | 1.43 GiB
Subtitles: English
Genre: Drama

The story of the legalization and subsequent rise of the porn industry in New York’s Times Square from the early ’70s through the mid ’80s, exploring the rough-and-tumble world that existed there until the rise of HIV, the violence of the cocaine epidemic and the renewed real estate market ended the bawdy turbulence of the area.

The.Deuce.S02E09.Inside.the.Pretend.720p.AMZN.WEB-DL.DDP5.1.H.264-NTb.mkv (1.4 GB)



General
Unique ID : 290248612723184282592518720459240238004 (0xDA5BD975F38613AF3C03658CAA3DEBB4)
Complete name : ./The.Deuce.S02E09.Inside.the.Pretend.720p.AMZN.WEB-DL.DDP5.1.H.264-NTb.mkv
Format : Matroska
Format version : Version 4 / Version 2
File size : 1.43 GiB
Duration : 1 h 13 min
Overall bit rate : 2 794 kb/s
Encoded date : UTC 2018-11-05 02:14:23
Writing application : mkvmerge v21.0.0 ('Tardigrades Will Inherit The Earth') 64-bit
Writing library : libebml v1.3.5 + libmatroska v1.4.8

Video
ID : 1
Format : AVC
Format/Info : Advanced Video Codec
Format profile : High@L3.1
Format settings : CABAC / 5 Ref Frames
Format settings, CABAC : Yes
Format settings, RefFrames : 5 frames
Codec ID : V_MPEG4/ISO/AVC
Duration : 1 h 13 min
Bit rate : 2 152 kb/s
Width : 1 280 pixels
Height : 720 pixels
Display aspect ratio : 16:9
Frame rate mode : Constant
Frame rate : 23.976 (24000/1001) FPS
Color space : YUV
Chroma subsampling : 4:2:0
Bit depth : 8 bits
Scan type : Progressive
Bits/(Pixel*Frame) : 0.097
Stream size : 1.10 GiB (77%)
Default : Yes
Forced : No
Color range : Limited
Color primaries : BT.709
Transfer characteristics : BT.709
Matrix coefficients : BT.709

Audio
ID : 2
Format : E-AC-3
Format/Info : Enhanced Audio Coding 3
Format settings, Endianness : Big
Codec ID : A_EAC3
Duration : 1 h 13 min
Bit rate mode : Constant
Bit rate : 640 kb/s
Channel(s) : 6 channels
Channel positions : Front: L C R, Side: L R, LFE
Sampling rate : 48.0 kHz
Frame rate : 187.500 FPS (256 SPF)
Compression mode : Lossy
Delay relative to video : 28 ms
Stream size : 334 MiB (23%)
Language : English
Service kind : Complete Main
Default : Yes
Forced : No

Text
ID : 3
Format : UTF-8
Codec ID : S_TEXT/UTF8
Codec ID/Info : UTF-8 Plain Text
Duration : 1 h 12 min
Bit rate : 73 b/s
Count of elements : 1299
Stream size : 39.3 KiB (0%)
Title : SDH
Language : English
Default : No
Forced : No





The Deuce S02E09


The Deuce S02E09


The Deuce S02E09


The Deuce S02E09


The Deuce S02E09

All episodes