Featured TV Shows


The Deuce S03E08

Posted By: Tavaz
1080p (FullHD) / WEBRip IMDb
The Deuce S03E08

The Deuce S03E08
WEBRip | MKV | 1920x1080 | English | H264 @ 5590 kbps | E-AC-3 @ 256 kbps | 1 h 18 min | 3.20 GiB
Subtitles: English
Genre: Drama


The story of the legalization and subsequent rise of the porn industry in New York’s Times Square from the early ’70s through the mid ’80s, exploring the rough-and-tumble world that existed there until the rise of HIV, the violence of the cocaine epidemic and the renewed real estate market ended the bawdy turbulence of the area.

0bf7f57deb1c475a9dd021b39973f5d6.mkv (3.2 GB)



General
Unique ID : 12535072653661868725219231811131646696 (0x96E2ACC2B54BB0EF893595013ABA2E8)
Complete name : ./0bf7f57deb1c475a9dd021b39973f5d6.mkv
Format : Matroska
Format version : Version 4 / Version 2
File size : 3.20 GiB
Duration : 1 h 18 min
Overall bit rate : 5 848 kb/s
Encoded date : UTC 2019-10-29 01:01:21
Writing application : mkvmerge v38.0.0 ('The Silent Type') 64-bit
Writing library : libebml v1.3.9 + libmatroska v1.5.2

Video
ID : 1
Format : AVC
Format/Info : Advanced Video Codec
Format profile : High@L4
Format settings : CABAC / 4 Ref Frames
Format settings, CABAC : Yes
Format settings, RefFrames : 4 frames
Codec ID : V_MPEG4/ISO/AVC
Duration : 1 h 18 min
Bit rate : 5 590 kb/s
Width : 1 920 pixels
Height : 1 080 pixels
Display aspect ratio : 16:9
Frame rate mode : Constant
Frame rate : 23.976 (24000/1001) FPS
Color space : YUV
Chroma subsampling : 4:2:0
Bit depth : 8 bits
Scan type : Progressive
Bits/(Pixel*Frame) : 0.112
Stream size : 3.06 GiB (96%)
Default : Yes
Forced : No

Audio
ID : 2
Format : E-AC-3
Format/Info : Enhanced Audio Coding 3
Format settings, Endianness : Big
Codec ID : A_EAC3
Duration : 1 h 18 min
Bit rate mode : Constant
Bit rate : 256 kb/s
Channel(s) : 6 channels
Channel positions : Front: L C R, Side: L R, LFE
Sampling rate : 48.0 kHz
Frame rate : 187.500 FPS (256 SPF)
Compression mode : Lossy
Delay relative to video : 30 ms
Stream size : 144 MiB (4%)
Service kind : Complete Main
Default : Yes
Forced : No

Text
ID : 3
Format : UTF-8
Codec ID : S_TEXT/UTF8
Codec ID/Info : UTF-8 Plain Text
Duration : 1 h 18 min
Bit rate : 83 b/s
Count of elements : 1348
Stream size : 48.1 KiB (0%)
Language : English
Default : No
Forced : No





The Deuce S03E08


The Deuce S03E08


The Deuce S03E08


The Deuce S03E08


The Deuce S03E08

All episodes