Index
# A B C D E F G H I J K L M N O P Q R S T U V W Y Z
Tags
Language
Tags

Featured TV Shows


The Dropout S01E08

Posted By: Tavaz
2160p (4k UHD) / WEBRip IMDb
The Dropout S01E08

The Dropout S01E08
WEB-DL | MKV | 3840x2160 | English / Deutsch | H265 @ 14698 kbps | E-AC-3 @ 256 kbps | 52 min 12 s | 5.55 GiB
Subtitles: English, Deutsch
Genre: Drama


„The Dropout“ zeichnet die skandalträchtige Geschichte um die Unternehmerin Elizabeth Holmes und ihrer Firma nach. Holmes brach 2003 ihr Studium an der Stanford University ab („drop out“), um das Biotechnologie-Unternehmen Theranos zu gründen. Die Firma versprach, das Verfahren für Blutuntersuchungen unter Verwendung von Gentests zu revolutionieren. Im vergangenen Jahr wurden Holmes und ihr Geschäftsführer schließlich von einer Grand Jury des Betruges angeklagt. Einst wurde Holmes als eine Art Wunderkind gehandelt, nun drohen ihr bis zu 20 Jahre Gefängnis. Das Verfahren gegen sie beginnt voraussichtlich im Juli 2021.

the.dropout.s01e08.german.dubbed.dl.2160p.web.h265-rile.mkv (5.5 GB)



General
Unique ID : 147593747019013839167530220963557887972 (0x6F09858E0DD87848A667CB502EF14FE4)
Complete name : ./the.dropout.s01e08.german.dubbed.dl.2160p.web.h265-rile.mkv
Format : Matroska
Format version : Version 4 / Version 2
File size : 5.55 GiB
Duration : 52 min 12 s
Overall bit rate : 15.2 Mb/s
Encoded date : UTC 2022-04-19 21:45:56
Writing application : mkvmerge v67.0.0 ('Under Stars') 64-bit
Writing library : libebml v1.4.2 + libmatroska v1.6.4 / Lavf58.35.100

Video
ID : 1
Format : HEVC
Format/Info : High Efficiency Video Coding
Format profile : Main 10@L5.1@Main
Codec ID : V_MPEGH/ISO/HEVC
Duration : 52 min 11 s
Bit rate : 14.7 Mb/s
Width : 3 840 pixels
Height : 2 160 pixels
Display aspect ratio : 16:9
Frame rate mode : Constant
Frame rate : 23.976 (24000/1001) FPS
Color space : YUV
Chroma subsampling : 4:2:0
Bit depth : 10 bits
Bits/(Pixel*Frame) : 0.074
Stream size : 5.36 GiB (97%)
Default : Yes
Forced : No

Audio #1
ID : 2
Format : E-AC-3
Format/Info : Enhanced Audio Coding 3
Format settings, Endianness : Big
Codec ID : A_EAC3
Duration : 52 min 12 s
Bit rate mode : Constant
Bit rate : 256 kb/s
Channel(s) : 6 channels
Channel positions : Front: L C R, Side: L R, LFE
Sampling rate : 48.0 kHz
Frame rate : 187.500 FPS (256 SPF)
Compression mode : Lossy
Stream size : 95.6 MiB (2%)
Language : German
Service kind : Complete Main
Default : Yes
Forced : No

Audio #2
ID : 3
Format : E-AC-3
Format/Info : Enhanced Audio Coding 3
Format settings, Endianness : Big
Codec ID : A_EAC3
Duration : 52 min 12 s
Bit rate mode : Constant
Bit rate : 256 kb/s
Channel(s) : 6 channels
Channel positions : Front: L C R, Side: L R, LFE
Sampling rate : 48.0 kHz
Frame rate : 187.500 FPS (256 SPF)
Compression mode : Lossy
Stream size : 95.6 MiB (2%)
Language : English
Service kind : Complete Main
Default : No
Forced : No

Text #1
ID : 4
Format : UTF-8
Codec ID : S_TEXT/UTF8
Codec ID/Info : UTF-8 Plain Text
Duration : 51 min 56 s
Bit rate : 4 b/s
Count of elements : 44
Stream size : 1.79 KiB (0%)
Title : German_Forced
Language : German
Default : Yes
Forced : Yes

Text #2
ID : 5
Format : UTF-8
Codec ID : S_TEXT/UTF8
Codec ID/Info : UTF-8 Plain Text
Duration : 51 min 56 s
Bit rate : 69 b/s
Count of elements : 672
Stream size : 26.3 KiB (0%)
Title : German
Language : German
Default : No
Forced : No

Text #3
ID : 6
Format : UTF-8
Codec ID : S_TEXT/UTF8
Codec ID/Info : UTF-8 Plain Text
Duration : 51 min 46 s
Bit rate : 69 b/s
Count of elements : 859
Stream size : 26.3 KiB (0%)
Title : English
Language : English
Default : No
Forced : No





The Dropout S01E08


The Dropout S01E08


The Dropout S01E08


The Dropout S01E08


The Dropout S01E08

All episodes