Index
# A B C D E F G H I J K L M N O P Q R S T U V W Y Z
Tags
Language
Tags

Featured TV Shows


The Dropout S01E08

Posted By: Tavaz
720p (HD) / WEBRip IMDb
The Dropout S01E08

The Dropout S01E08
WEBRip | MKV | 1280x720 | English | H264 @ 1032 kbps | E-AC-3 @ 256 kbps | 52 min 12 s | 482 MiB
Subtitles: Español, English
Genre: Drama


The story of Elizabeth Holmes, the enigmatic Stanford dropout who founded medical testing start-up Theranos. Lauded as a Steve Jobs for the next tech generation and once worth billions of dollars, the myth crumbled when it was revealed that none of the tech actually worked, putting thousands of people's health in grave danger.

d6a6b057c3c3443c83ffa592410ab8ff.mkv (482.0 MB)



General
Unique ID : 287010316042095275621572325428924139432 (0xD7EC2D1B88226F83354FD0F5016647A8)
Complete name : ./d6a6b057c3c3443c83ffa592410ab8ff.mkv
Format : Matroska
Format version : Version 4 / Version 2
File size : 482 MiB
Duration : 52 min 12 s
Overall bit rate : 1 291 kb/s
Writing application : mkvmerge v66.0.0 ('Josie') 64-bit
Writing library : libebml v1.4.2 + libmatroska v1.6.4

Video
ID : 1
Format : AVC
Format/Info : Advanced Video Codec
Format profile : High@L3.1
Format settings : CABAC / 5 Ref Frames
Format settings, CABAC : Yes
Format settings, RefFrames : 5 frames
Codec ID : V_MPEG4/ISO/AVC
Duration : 52 min 11 s
Bit rate : 1 033 kb/s
Width : 1 280 pixels
Height : 720 pixels
Display aspect ratio : 16:9
Frame rate mode : Constant
Frame rate : 23.976 (24000/1001) FPS
Color space : YUV
Chroma subsampling : 4:2:0
Bit depth : 8 bits
Scan type : Progressive
Bits/(Pixel*Frame) : 0.047
Stream size : 386 MiB (80%)
Default : Yes
Forced : No

Audio
ID : 2
Format : E-AC-3
Format/Info : Enhanced Audio Coding 3
Format settings, Endianness : Big
Codec ID : A_EAC3
Duration : 52 min 12 s
Bit rate mode : Constant
Bit rate : 256 kb/s
Channel(s) : 6 channels
Channel positions : Front: L C R, Side: L R, LFE
Sampling rate : 48.0 kHz
Frame rate : 187.500 FPS (256 SPF)
Compression mode : Lossy
Stream size : 95.6 MiB (20%)
Language : English
Service kind : Complete Main
Default : Yes
Forced : No

Text #1
ID : 3
Format : UTF-8
Codec ID : S_TEXT/UTF8
Codec ID/Info : UTF-8 Plain Text
Duration : 49 min 22 s
Bit rate : 66 b/s
Count of elements : 772
Stream size : 24.0 KiB (0%)
Language : English
Default : No
Forced : No

Text #2
ID : 4
Format : UTF-8
Codec ID : S_TEXT/UTF8
Codec ID/Info : UTF-8 Plain Text
Duration : 51 min 46 s
Bit rate : 70 b/s
Count of elements : 859
Stream size : 26.7 KiB (0%)
Title : SDH
Language : English
Default : No
Forced : No

Text #3
ID : 5
Format : UTF-8
Codec ID : S_TEXT/UTF8
Codec ID/Info : UTF-8 Plain Text
Duration : 51 min 46 s
Bit rate : 72 b/s
Count of elements : 888
Stream size : 27.4 KiB (0%)
Title : SDH
Language : Spanish
Default : No
Forced : No

Menu
00:12:46.000 : en:Chapter 1
00:24:52.000 : en:Chapter 2
00:37:18.000 : en:Chapter 3
00:43:57.000 : en:Chapter 4
00:51:00.000 : en:Credits





The Dropout S01E08


The Dropout S01E08


The Dropout S01E08


The Dropout S01E08


The Dropout S01E08

All episodes