Index
# A B C D E F G H I J K L M N O P Q R S T U V W Y Z
Tags
Language
Tags

Featured TV Shows


The Falcon and the Winter Soldier S01E01

Posted By: Tavaz
2160p (4k UHD) / WEB-DL IMDb
The Falcon and the Winter Soldier S01E01

The Falcon and the Winter Soldier S01E01
WEB-DL | MKV | 3840x1608 | English | H265 @ 2149 kbps | E-AC-3 @ 768 kbps | 47 min 18 s | 988 MiB
Subtitles: Français, Deutsch, Suomi, Español, Svenska, Italiano, Bahasa Indonesia, Dansk, English, Nederlands, Português
Genre: Drama


Following the events of “Avengers: Endgame”, the Falcon, Sam Wilson and the Winter Soldier, Bucky Barnes team up in a global adventure that tests their abilities, and their patience.

46b479a5767ae4439624fc57ec379975.mkv (988.1 MB)



General
Unique ID : 166829266154063597088491717876565973885 (0x7D8225DEA68269E77961B74616EC9B7D)
Complete name : ./46b479a5767ae4439624fc57ec379975.mkv
Format : Matroska
Format version : Version 4 / Version 2
File size : 988 MiB
Duration : 47 min 18 s
Overall bit rate : 2 920 kb/s
Encoded date : UTC 2021-03-21 17:35:45
Writing application : mkvmerge v55.0.0 ('Waiting For Space') 64-bit
Writing library : libebml v1.4.2 + libmatroska v1.6.4 / Lavf58.69.100

Video
ID : 1
Format : HEVC
Format/Info : High Efficiency Video Coding
Format profile : Main 10@L5@Main
Codec ID : V_MPEGH/ISO/HEVC
Duration : 47 min 16 s
Bit rate : 2 149 kb/s
Width : 3 840 pixels
Height : 1 608 pixels
Display aspect ratio : 2.40:1
Frame rate mode : Constant
Frame rate : 23.976 (24000/1001) FPS
Color space : YUV
Chroma subsampling : 4:2:0
Bit depth : 10 bits
Bits/(Pixel*Frame) : 0.015
Stream size : 727 MiB (74%)
Writing library : x265 3.5+dev-681c05e83:[Windows][GCC 10.2.0][64 bit] 10bit
Encoding settings : cpuid=1111039 / frame-threads=4 / numa-pools=16 / wpp / no-pmode / no-pme / no-psnr / no-ssim / log-level=2 / input-csp=1 / input-res=3840x1608 / interlace=0 / total-frames=0 / level-idc=0 / high-tier=1 / uhd-bd=0 / ref=3 / no-allow-non-conformance / repeat-headers / annexb / no-aud / no-hrd / info / hash=0 / no-temporal-layers / open-gop / min-keyint=24 / keyint=240 / gop-lookahead=0 / bframes=4 / b-adapt=0 / b-pyramid / bframe-bias=0 / rc-lookahead=15 / lookahead-slices=8 / scenecut=40 / hist-scenecut=0 / radl=0 / no-splice / no-intra-refresh / ctu=64 / min-cu-size=8 / no-rect / no-amp / max-tu-size=32 / tu-inter-depth=1 / tu-intra-depth=1 / limit-tu=0 / rdoq-level=0 / dynamic-rd=0.00 / no-ssim-rd / signhide / no-tskip / nr-intra=0 / nr-inter=0 / no-constrained-intra / strong-intra-smoothing / max-merge=2 / limit-refs=3 / no-limit-modes / me=1 / subme=2 / merange=57 / temporal-mvp / no-frame-dup / no-hme / weightp / no-weightb / no-analyze-src-pics / deblock=0:0 / sao / no-sao-non-deblock / rd=2 / selective-sao=4 / no-early-skip / rskip / fast-intra / no-tskip-fast / no-cu-lossless / no-b-intra / no-splitrd-skip / rdpenalty=0 / psy-rd=2.00 / psy-rdoq=0.00 / no-rd-refine / no-lossless / cbqpoffs=0 / crqpoffs=0 / rc=crf / crf=22.0 / qcomp=0.60 / qpstep=4 / stats-write=0 / stats-read=0 / ipratio=1.40 / pbratio=1.30 / aq-mode=2 / aq-strength=1.00 / cutree / zone-count=0 / no-strict-cbr / qg-size=32 / no-rc-grain / qpmax=69 / qpmin=0 / no-const-vbv / sar=1 / overscan=0 / videoformat=5 / range=0 / colorprim=9 / transfer=16 / colormatrix=9 / chromaloc=0 / display-window=0 / cll=0,0 / min-luma=0 / max-luma=1023 / log2-max-poc-lsb=8 / vui-timing-info / vui-hrd-info / slices=1 / no-opt-qp-pps / no-opt-ref-list-length-pps / no-multi-pass-opt-rps / scenecut-bias=0.05 / hist-threshold=0.03 / no-opt-cu-delta-qp / no-aq-motion / no-hdr10 / hdr10-opt / no-dhdr10-opt / no-idr-recovery-sei / analysis-reuse-level=0 / analysis-save-reuse-level=0 / analysis-load-reuse-level=0 / scale-factor=0 / refine-intra=0 / refine-inter=0 / refine-mv=1 / refine-ctu-distortion=0 / no-limit-sao / ctu-info=0 / no-lowpass-dct / refine-analysis-type=0 / copy-pic=1 / max-ausize-factor=1.0 / no-dynamic-refine / no-single-sei / no-hevc-aq / no-svt / no-field / qp-adaptation-range=1.00 / no-scenecut-aware-qpconformance-window-offsets / right=0 / bottom=0 / decoder-max-rate=0 / no-vbv-live-multi-pass
Default : Yes
Forced : No
Color range : Limited
Color primaries : BT.2020
Transfer characteristics : PQ
Matrix coefficients : BT.2020 non-constant

Audio
ID : 2
Format : E-AC-3
Format/Info : Enhanced Audio Coding 3
Format profile : E-AC-3+Atmos / E-AC-3
Format settings, Endianness : Big
Codec ID : A_EAC3
Duration : 47 min 18 s
Bit rate mode : Constant
Bit rate : 768 kb/s
Channel(s) : 15 objects / 6 channels
Channel positions : 15 objects / Front: L C R, Side: L R, LFE
Sampling rate : 48.0 kHz
Frame rate : 187.500 FPS (256 SPF)
Bit depth : 32 bits
Compression mode : Lossy
Stream size : 260 MiB (26%)
Title : Surround
Language : English
Service kind : Complete Main
Default : Yes
Forced : No

Text #1
ID : 3
Format : UTF-8
Codec ID : S_TEXT/UTF8
Codec ID/Info : UTF-8 Plain Text
Duration : 42 min 35 s
Bit rate : 156 b/s
Count of elements : 674
Stream size : 48.9 KiB (0%)
Title : English (SDH)
Writing library : Lavc58.128.100 srt
Language : English
Default : No
Forced : No

Text #2
ID : 4
Format : UTF-8
Codec ID : S_TEXT/UTF8
Codec ID/Info : UTF-8 Plain Text
Duration : 45 min 48 s
Bit rate : 93 b/s
Count of elements : 383
Stream size : 31.5 KiB (0%)
Title : Dansk
Writing library : Lavc58.128.100 srt
Language : Danish
Default : No
Forced : No

Text #3
ID : 5
Format : UTF-8
Codec ID : S_TEXT/UTF8
Codec ID/Info : UTF-8 Plain Text
Duration : 45 min 48 s
Bit rate : 111 b/s
Count of elements : 515
Stream size : 37.3 KiB (0%)
Title : Deutsch
Writing library : Lavc58.128.100 srt
Language : German
Default : No
Forced : No

Text #4
ID : 6
Format : UTF-8
Codec ID : S_TEXT/UTF8
Codec ID/Info : UTF-8 Plain Text
Duration : 45 min 48 s
Bit rate : 123 b/s
Count of elements : 574
Stream size : 41.3 KiB (0%)
Title : Español (Latinoamericano)
Writing library : Lavc58.128.100 srt
Language : Spanish
Default : No
Forced : No

Text #5
ID : 7
Format : UTF-8
Codec ID : S_TEXT/UTF8
Codec ID/Info : UTF-8 Plain Text
Duration : 45 min 48 s
Bit rate : 123 b/s
Count of elements : 569
Stream size : 41.3 KiB (0%)
Title : Español
Writing library : Lavc58.128.100 srt
Language : Spanish
Default : No
Forced : No

Text #6
ID : 8
Format : UTF-8
Codec ID : S_TEXT/UTF8
Codec ID/Info : UTF-8 Plain Text
Duration : 45 min 48 s
Bit rate : 114 b/s
Count of elements : 565
Stream size : 38.5 KiB (0%)
Title : Suomi
Writing library : Lavc58.128.100 srt
Language : Finnish
Default : No
Forced : No

Text #7
ID : 9
Format : UTF-8
Codec ID : S_TEXT/UTF8
Codec ID/Info : UTF-8 Plain Text
Duration : 45 min 48 s
Bit rate : 116 b/s
Count of elements : 562
Stream size : 39.2 KiB (0%)
Title : Français
Writing library : Lavc58.128.100 srt
Language : French
Default : No
Forced : No

Text #8
ID : 10
Format : UTF-8
Codec ID : S_TEXT/UTF8
Codec ID/Info : UTF-8 Plain Text
Duration : 43 min 17 s
Bit rate : 123 b/s
Count of elements : 562
Stream size : 39.1 KiB (0%)
Title : Français (Canadien)
Writing library : Lavc58.128.100 srt
Language : French
Default : No
Forced : No

Text #9
ID : 11
Format : UTF-8
Codec ID : S_TEXT/UTF8
Codec ID/Info : UTF-8 Plain Text
Duration : 45 min 48 s
Bit rate : 123 b/s
Count of elements : 565
Stream size : 41.4 KiB (0%)
Title : Indonesian
Writing library : Lavc58.128.100 srt
Language : Indonesian
Default : No
Forced : No

Text #10
ID : 12
Format : UTF-8
Codec ID : S_TEXT/UTF8
Codec ID/Info : UTF-8 Plain Text
Duration : 45 min 48 s
Bit rate : 117 b/s
Count of elements : 566
Stream size : 39.6 KiB (0%)
Title : Italiano
Writing library : Lavc58.128.100 srt
Language : Italian
Default : No
Forced : No

Text #11
ID : 13
Format : UTF-8
Codec ID : S_TEXT/UTF8
Codec ID/Info : UTF-8 Plain Text
Duration : 45 min 48 s
Bit rate : 96 b/s
Count of elements : 399
Stream size : 32.4 KiB (0%)
Title : Nederlands
Writing library : Lavc58.128.100 srt
Language : Dutch
Default : No
Forced : No

Text #12
ID : 14
Format : UTF-8
Codec ID : S_TEXT/UTF8
Codec ID/Info : UTF-8 Plain Text
Duration : 45 min 48 s
Bit rate : 114 b/s
Count of elements : 565
Stream size : 38.4 KiB (0%)
Title : Norsk
Writing library : Lavc58.128.100 srt
Language : Norwegian
Default : No
Forced : No

Text #13
ID : 15
Format : UTF-8
Codec ID : S_TEXT/UTF8
Codec ID/Info : UTF-8 Plain Text
Duration : 45 min 48 s
Bit rate : 123 b/s
Count of elements : 571
Stream size : 41.4 KiB (0%)
Title : Português (Brasil)
Writing library : Lavc58.128.100 srt
Language : Portuguese
Default : No
Forced : No

Text #14
ID : 16
Format : UTF-8
Codec ID : S_TEXT/UTF8
Codec ID/Info : UTF-8 Plain Text
Duration : 45 min 48 s
Bit rate : 118 b/s
Count of elements : 555
Stream size : 39.8 KiB (0%)
Title : Português
Writing library : Lavc58.128.100 srt
Language : Portuguese
Default : No
Forced : No

Text #15
ID : 17
Format : UTF-8
Codec ID : S_TEXT/UTF8
Codec ID/Info : UTF-8 Plain Text
Duration : 45 min 48 s
Bit rate : 103 b/s
Count of elements : 427
Stream size : 34.7 KiB (0%)
Title : Svenska
Writing library : Lavc58.128.100 srt
Language : Swedish
Default : No
Forced : No





The Falcon and the Winter Soldier S01E01


The Falcon and the Winter Soldier S01E01


The Falcon and the Winter Soldier S01E01


The Falcon and the Winter Soldier S01E01


The Falcon and the Winter Soldier S01E01

All episodes