Featured TV Shows


The Falcon and the Winter Soldier S01E03

Posted By: Tavaz
720p (HD) / WEBRip IMDb
The Falcon and the Winter Soldier S01E03

The Falcon and the Winter Soldier S01E03
WEBRip | MOV | 1280x720 | H264 @ 3413 kbps | AAC @ 128 kbps | 50 min 49 s | 1.26 GiB
Genre: Drama


Following the events of “Avengers: Endgame”, the Falcon, Sam Wilson and the Winter Soldier, Bucky Barnes team up in a global adventure that tests their abilities, and their patience.

2a7ba9e0c060c82b57c2d6cb88674d7d.mp4 (1.3 GB)



General
Complete name : ./2a7ba9e0c060c82b57c2d6cb88674d7d.mp4
Format : MPEG-4
Format profile : Base Media
Codec ID : isom (isom/iso2/avc1/mp41)
File size : 1.26 GiB
Duration : 50 min 49 s
Overall bit rate mode : Variable
Overall bit rate : 3 548 kb/s
Writing application : Lavf57.56.101

Video
ID : 1
Format : AVC
Format/Info : Advanced Video Codec
Format profile : High@L3.1
Format settings : CABAC / 4 Ref Frames
Format settings, CABAC : Yes
Format settings, RefFrames : 4 frames
Codec ID : avc1
Codec ID/Info : Advanced Video Coding
Duration : 50 min 49 s
Bit rate mode : Variable
Bit rate : 3 414 kb/s
Maximum bit rate : 6 375 kb/s
Width : 1 280 pixels
Height : 720 pixels
Display aspect ratio : 16:9
Frame rate mode : Constant
Frame rate : 24.000 FPS
Color space : YUV
Chroma subsampling : 4:2:0
Bit depth : 8 bits
Scan type : Progressive
Bits/(Pixel*Frame) : 0.154
Stream size : 1.21 GiB (96%)
Color range : Limited
Color primaries : BT.709
Transfer characteristics : BT.709
Matrix coefficients : BT.709

Audio
ID : 2
Format : AAC
Format/Info : Advanced Audio Codec
Format profile : LC
Codec ID : mp4a-40-2
Duration : 50 min 49 s
Bit rate mode : Constant
Bit rate : 129 kb/s
Channel(s) : 2 channels
Channel positions : Front: L R
Sampling rate : 48.0 kHz
Frame rate : 46.875 FPS (1024 SPF)
Compression mode : Lossy
Stream size : 46.8 MiB (4%)
Default : Yes
Alternate group : 1





The Falcon and the Winter Soldier S01E03


The Falcon and the Winter Soldier S01E03


The Falcon and the Winter Soldier S01E03


The Falcon and the Winter Soldier S01E03


The Falcon and the Winter Soldier S01E03

All episodes