Index
# A B C D E F G H I J K L M N O P Q R S T U V W Y Z
Tags
Language
Tags
February 2023
Su Mo Tu We Th Fr Sa
29 30 31 1 2 3 4
5 6 7 8 9 10 11
12 13 14 15 16 17 18
19 20 21 22 23 24 25
26 27 28 1 2 3 4

Featured TV Shows


El Cuento De La Criada S02E11

Posted By: Tavaz
1080p (FullHD) / WEBRip IMDb
El Cuento De La Criada S02E11

El Cuento De La Criada S02E11
WEBRip | MKV | 1920x960 | Spanish | H264 @ 5680 kbps | AC-3 @ 384 kbps | 47 min 40 s | 2.02 GiB
Genre: Drama

Tras el ataque terrorista que acaba con la vida del presidente de los Estados Unidos y la mayoría de los miembros del Congreso, un movimiento que se hace llamar "hijos de Jacob" inicia una revolución y elimina la Constitución de los Estados Unidos para restaurar el orden. El nuevo régimen, la República de Gilead, es una sociedad totalitaria con una tasa de natalidad muy baja que se basa en un fundamentalismo religioso retorcido que trata a las mujeres como propiedad del estado. Offred es una de las pocas mujeres fértiles de Gilead y mujer que se ve obligada a vivir como una concubina de los Comandantes, al igual que todas las mujeres qe conviven con ella. Todas las mujeres son forzadas a la servidumbre sexual en un intento desesperado por repoblar el mundo. De repente, se encuentra sola, sin su familia y se da cuenta de que no tiene ningún tipo de potestad. Ella era una mujer que luchaba por sus derechos y, de la noche a la mañana, sus derechos se han esfumado. Así, Offred busca la forma de escapar atesorando secretos, y para ello se mueve entre los Comandantes, sus crueles esposas y sus compañeras de casta. Una palabra equivocada, un mal gesto o cualquier indicio de rebelión puede acabar con su vida en un mundo en el que todos pueden ser espías. A pesar de todo, Offred tiene un objetivo: sobrevivir y encontrar a la hija que le fue arrebatada.

Elisabeth Moss (Mad Men) es la encargada de dar vida a la protagonista, Offred, que está acompañada por Joseph Fiennes (Shakespeare enamorado) como el Comandante e Yvonne Strahovski (Dexter) interpretado a su mujer, Serena. Completan el reparto Samira Wiley (Orange is the new black), Max Minghella (Ágora) y O.T. Fagbenle (Breaking and Entering) entre otros.

the.handmaids.tale.s02e11.spanish.1080p.webrip.x264-fcc.mkv (2.0 GB)



General
Unique ID : 91624070521486265722521702277260199960 (0x44EE277362C4D0AB39DC2627DC434818)
Complete name : ./the.handmaids.tale.s02e11.spanish.1080p.webrip.x264-fcc.mkv
Format : Matroska
Format version : Version 4 / Version 2
File size : 2.02 GiB
Duration : 47 min 40 s
Overall bit rate : 6 066 kb/s
Movie name : the.handmaids.tale.s02e11.1080p.fcc
Encoded date : UTC 2018-06-29 22:04:59
Writing application : mkvmerge v19.0.0 ('Brave Captain') 64-bit
Writing library : libebml v1.3.5 + libmatroska v1.4.8

Video
ID : 1
Format : AVC
Format/Info : Advanced Video Codec
Format profile : High@L4.1
Format settings : CABAC / 4 Ref Frames
Format settings, CABAC : Yes
Format settings, RefFrames : 4 frames
Codec ID : V_MPEG4/ISO/AVC
Duration : 47 min 40 s
Bit rate : 5 681 kb/s
Width : 1 920 pixels
Height : 960 pixels
Display aspect ratio : 2.000
Frame rate mode : Constant
Frame rate : 23.976 (24000/1001) FPS
Color space : YUV
Chroma subsampling : 4:2:0
Bit depth : 8 bits
Scan type : Progressive
Bits/(Pixel*Frame) : 0.129
Stream size : 1.89 GiB (94%)
Title : FCC 4ever
Writing library : x264 core 155 r2901 7d0ff22
Encoding settings : opencl=1 / cabac=1 / ref=4 / deblock=1:-3:-3 / analyse=0x3:0x113 / me=hex / subme=7 / psy=1 / psy_rd=1.00:0.00 / mixed_ref=1 / me_range=16 / chroma_me=1 / trellis=1 / 8x8dct=1 / cqm=0 / deadzone=21,11 / fast_pskip=1 / chroma_qp_offset=-2 / threads=12 / lookahead_threads=2 / sliced_threads=0 / nr=0 / decimate=1 / interlaced=0 / bluray_compat=0 / constrained_intra=0 / bframes=3 / b_pyramid=2 / b_adapt=1 / b_bias=0 / direct=1 / weightb=1 / open_gop=0 / weightp=2 / keyint=250 / keyint_min=23 / scenecut=40 / intra_refresh=0 / rc_lookahead=40 / rc=crf / mbtree=1 / crf=17.0 / qcomp=0.60 / qpmin=0 / qpmax=69 / qpstep=4 / ip_ratio=1.40 / aq=1:1.00
Language : Spanish
Default : Yes
Forced : No

Audio
ID : 2
Format : AC-3
Format/Info : Audio Coding 3
Format settings, Endianness : Big
Codec ID : A_AC3
Duration : 47 min 40 s
Bit rate mode : Constant
Bit rate : 384 kb/s
Channel(s) : 6 channels
Channel positions : Front: L C R, Side: L R, LFE
Sampling rate : 48.0 kHz
Frame rate : 31.250 FPS (1536 SPF)
Bit depth : 16 bits
Compression mode : Lossy
Stream size : 131 MiB (6%)
Title : FCC 4ever
Language : Spanish
Service kind : Complete Main
Default : Yes
Forced : No





El Cuento De La Criada S02E11


El Cuento De La Criada S02E11


El Cuento De La Criada S02E11


El Cuento De La Criada S02E11


El Cuento De La Criada S02E11

All episodes