Index
# A B C D E F G H I J K L M N O P Q R S T U V W Y Z
Tags
Language
Tags
January 2023
Su Mo Tu We Th Fr Sa
1 2 3 4 5 6 7
8 9 10 11 12 13 14
15 16 17 18 19 20 21
22 23 24 25 26 27 28
29 30 31 1 2 3 4

Featured TV Shows


El Cuento De La Criada S02E11

Posted By: Tavaz
SD / WEBRip IMDb
El Cuento De La Criada S02E11

El Cuento De La Criada S02E11
WEBRip | MKV | 720x360 | Spanish | H264 @ 491 kbps | AAC @ 132 kbps | 47 min 40 s | 213 MiB
Genre: Drama

Tras el ataque terrorista que acaba con la vida del presidente de los Estados Unidos y la mayoría de los miembros del Congreso, un movimiento que se hace llamar "hijos de Jacob" inicia una revolución y elimina la Constitución de los Estados Unidos para restaurar el orden. El nuevo régimen, la República de Gilead, es una sociedad totalitaria con una tasa de natalidad muy baja que se basa en un fundamentalismo religioso retorcido que trata a las mujeres como propiedad del estado. Offred es una de las pocas mujeres fértiles de Gilead y mujer que se ve obligada a vivir como una concubina de los Comandantes, al igual que todas las mujeres qe conviven con ella. Todas las mujeres son forzadas a la servidumbre sexual en un intento desesperado por repoblar el mundo. De repente, se encuentra sola, sin su familia y se da cuenta de que no tiene ningún tipo de potestad. Ella era una mujer que luchaba por sus derechos y, de la noche a la mañana, sus derechos se han esfumado. Así, Offred busca la forma de escapar atesorando secretos, y para ello se mueve entre los Comandantes, sus crueles esposas y sus compañeras de casta. Una palabra equivocada, un mal gesto o cualquier indicio de rebelión puede acabar con su vida en un mundo en el que todos pueden ser espías. A pesar de todo, Offred tiene un objetivo: sobrevivir y encontrar a la hija que le fue arrebatada.

Elisabeth Moss (Mad Men) es la encargada de dar vida a la protagonista, Offred, que está acompañada por Joseph Fiennes (Shakespeare enamorado) como el Comandante e Yvonne Strahovski (Dexter) interpretado a su mujer, Serena. Completan el reparto Samira Wiley (Orange is the new black), Max Minghella (Ágora) y O.T. Fagbenle (Breaking and Entering) entre otros.

the.handmaids.tale.s02e11.spanish.webrip.x264-fcc.mkv (212.6 MB)



General
Unique ID : 330890595764589775826305119557280199349 (0xF8EF35EE76ADA2B0BF5949A485BDF2B5)
Complete name : ./the.handmaids.tale.s02e11.spanish.webrip.x264-fcc.mkv
Format : Matroska
Format version : Version 4 / Version 2
File size : 213 MiB
Duration : 47 min 40 s
Overall bit rate : 624 kb/s
Movie name : the.handmaids.tale.s02e11.fcc
Encoded date : UTC 2018-06-29 23:05:38
Writing application : mkvmerge v19.0.0 ('Brave Captain') 64-bit
Writing library : libebml v1.3.5 + libmatroska v1.4.8

Video
ID : 1
Format : AVC
Format/Info : Advanced Video Codec
Format profile : High@L3.1
Format settings : CABAC / 5 Ref Frames
Format settings, CABAC : Yes
Format settings, RefFrames : 5 frames
Codec ID : V_MPEG4/ISO/AVC
Duration : 47 min 40 s
Bit rate : 492 kb/s
Width : 720 pixels
Height : 360 pixels
Display aspect ratio : 2.000
Frame rate mode : Constant
Frame rate : 23.976 (24000/1001) FPS
Color space : YUV
Chroma subsampling : 4:2:0
Bit depth : 8 bits
Scan type : Progressive
Bits/(Pixel*Frame) : 0.079
Stream size : 168 MiB (79%)
Title : FCC 4ever
Writing library : x264 core 155 r2901 7d0ff22
Encoding settings : opencl=1 / cabac=1 / ref=5 / deblock=1:-3:-3 / analyse=0x3:0x113 / me=hex / subme=8 / psy=1 / psy_rd=1.00:0.00 / mixed_ref=1 / me_range=16 / chroma_me=1 / trellis=2 / 8x8dct=1 / cqm=0 / deadzone=21,11 / fast_pskip=1 / chroma_qp_offset=-2 / threads=11 / lookahead_threads=1 / sliced_threads=0 / nr=0 / decimate=1 / interlaced=0 / bluray_compat=0 / constrained_intra=0 / bframes=3 / b_pyramid=2 / b_adapt=1 / b_bias=0 / direct=3 / weightb=1 / open_gop=0 / weightp=2 / keyint=250 / keyint_min=23 / scenecut=40 / intra_refresh=0 / rc_lookahead=50 / rc=crf / mbtree=1 / crf=19.0 / qcomp=0.60 / qpmin=0 / qpmax=69 / qpstep=4 / ip_ratio=1.40 / aq=1:1.00
Language : Spanish
Default : Yes
Forced : No
Color range : Limited
Matrix coefficients : BT.709

Audio
ID : 2
Format : AAC
Format/Info : Advanced Audio Codec
Format profile : LC
Codec ID : A_AAC-2
Duration : 47 min 40 s
Bit rate : 132 kb/s
Channel(s) : 2 channels
Channel positions : Front: L R
Sampling rate : 48.0 kHz
Frame rate : 46.875 FPS (1024 SPF)
Compression mode : Lossy
Delay relative to video : 9 ms
Stream size : 44.2 MiB (21%)
Title : FCC 4ever
Language : Spanish
Default : Yes
Forced : No





El Cuento De La Criada S02E11


El Cuento De La Criada S02E11


El Cuento De La Criada S02E11


El Cuento De La Criada S02E11


El Cuento De La Criada S02E11

All episodes