Featured TV Shows


The Kominsky Method S01E02

Posted By: Tavaz
The Kominsky Method S01E02

The Kominsky Method S01E02
MOV | 1920x1080 | English | H264 @ 7457 kbps | AAC @ 192 kbps | 28 min 40 s | 1.49 GiB
Genre: Comedy, Drama

An aging actor, who long ago enjoyed a brush with fame, makes his living as an acting coach.

b07a9c395beb4d01823582b4e16e9262.mp4 (1.5 GB)



General
Complete name : ./b07a9c395beb4d01823582b4e16e9262.mp4
Format : MPEG-4
Format profile : Base Media / Version 2
Codec ID : mp42 (mp42/isom/avc1)
File size : 1.49 GiB
Duration : 28 min 40 s
Overall bit rate mode : Variable
Overall bit rate : 7 446 kb/s
Movie name : The.Kominsky.Method.S01E02.1080p.NetflixRip.x264-CallMeBrado
Encoded date : UTC 2018-11-28 11:33:39
Tagged date : UTC 2018-11-28 11:34:43
Writing application : DVDFab 10.2.1.0
covr : Unknown kind of value!

Video
ID : 1
Format : AVC
Format/Info : Advanced Video Codec
Format profile : Main@L4
Format settings : CABAC / 1 Ref Frames
Format settings, CABAC : Yes
Format settings, RefFrames : 1 frame
Format settings, GOP : M=1, N=24
Codec ID : avc1
Codec ID/Info : Advanced Video Coding
Duration : 28 min 40 s
Source duration : 28 min 40 s
Bit rate mode : Constant
Bit rate : 7 458 kb/s
Width : 1 920 pixels
Height : 1 080 pixels
Display aspect ratio : 16:9
Frame rate mode : Constant
Frame rate : 23.976 (24000/1001) FPS
Color space : YUV
Chroma subsampling : 4:2:0
Bit depth : 8 bits
Scan type : Progressive
Bits/(Pixel*Frame) : 0.150
Stream size : 1.45 GiB (97%)
Source stream size : 1.45 GiB (97%)
Encoded date : UTC 2018-11-28 11:33:39
Tagged date : UTC 2018-11-28 11:34:43
Color range : Limited
Color primaries : BT.709
Transfer characteristics : BT.709
Matrix coefficients : BT.709

Audio
ID : 2
Format : AAC
Format/Info : Advanced Audio Codec
Format profile : LC
Codec ID : mp4a-40-2
Duration : 28 min 40 s
Bit rate mode : Variable
Bit rate : 192 kb/s
Maximum bit rate : 194 kb/s
Channel(s) : 2 channels
Channel positions : Front: L R
Sampling rate : 48.0 kHz
Frame rate : 46.875 FPS (1024 SPF)
Compression mode : Lossy
Stream size : 39.4 MiB (3%)
Title : English (aac 2.0)
Language : English
Default : Yes
Alternate group : 1
Encoded date : UTC 2018-11-28 11:33:39
Tagged date : UTC 2018-11-28 11:34:43





The Kominsky Method S01E02


The Kominsky Method S01E02


The Kominsky Method S01E02


The Kominsky Method S01E02


The Kominsky Method S01E02

All episodes