Featured TV Shows


The Loudest Voice S01E07

Posted By: Tavaz
1080p (FullHD) / WEBRip IMDb
The Loudest Voice S01E07

The Loudest Voice S01E07
WEBRip | MKV | 1920x1080 | French / English | H264 @ 4758 kbps | AAC @ 125 kbps | 49 min 30 s | 1.73 GiB
Subtitles: French
Genre: Drama


The rise and fall of Fox News founder Roger Ailes, focusing primarily on the past decade in which Ailes arguably became the Republican Party’s de facto leader, while flashing back to defining events in his life.

167f4b44b46e49fa89ad0d5f6e9cb7f6.mkv (1.7 GB)



General
Unique ID : 288901652151563233021817841502336664323 (0xD9586F2D60C7CD01768653AAAB2D4303)
Complete name : ./167f4b44b46e49fa89ad0d5f6e9cb7f6.mkv
Format : Matroska
Format version : Version 4 / Version 2
File size : 1.73 GiB
Duration : 49 min 30 s
Overall bit rate : 5 010 kb/s
Encoded date : UTC 2020-01-09 19:16:03
Writing application : mkvmerge v42.0.0 ('Overtime') 64-bit
Writing library : libebml v1.3.10 + libmatroska v1.5.2

Video
ID : 1
Format : AVC
Format/Info : Advanced Video Codec
Format profile : High@L4
Format settings : CABAC / 2 Ref Frames
Format settings, CABAC : Yes
Format settings, RefFrames : 2 frames
Codec ID : V_MPEG4/ISO/AVC
Duration : 49 min 28 s
Bit rate mode : Constant
Bit rate : 4 758 kb/s
Nominal bit rate : 5 000 kb/s
Width : 1 920 pixels
Height : 1 080 pixels
Display aspect ratio : 16:9
Frame rate mode : Constant
Frame rate : 25.000 FPS
Color space : YUV
Chroma subsampling : 4:2:0
Bit depth : 8 bits
Scan type : Progressive
Bits/(Pixel*Frame) : 0.092
Stream size : 1.64 GiB (95%)
Default : Yes
Forced : No

Audio #1
ID : 2
Format : AAC
Format/Info : Advanced Audio Codec
Format profile : LC
Codec ID : A_AAC-2
Duration : 49 min 30 s
Bit rate : 125 kb/s
Channel(s) : 2 channels
Channel positions : Front: L R
Sampling rate : 48.0 kHz
Frame rate : 46.875 FPS (1024 SPF)
Compression mode : Lossy
Stream size : 44.4 MiB (3%)
Title : French
Language : French
Default : Yes
Forced : No

Audio #2
ID : 3
Format : AAC
Format/Info : Advanced Audio Codec
Format profile : LC
Codec ID : A_AAC-2
Duration : 49 min 30 s
Bit rate : 125 kb/s
Channel(s) : 2 channels
Channel positions : Front: L R
Sampling rate : 48.0 kHz
Frame rate : 46.875 FPS (1024 SPF)
Compression mode : Lossy
Stream size : 44.4 MiB (3%)
Title : English
Language : English
Default : No
Forced : No

Text
ID : 4
Format : UTF-8
Codec ID : S_TEXT/UTF8
Codec ID/Info : UTF-8 Plain Text
Duration : 46 min 52 s
Bit rate : 62 b/s
Count of elements : 723
Stream size : 21.4 KiB (0%)
Title : French
Language : French
Default : No
Forced : No





The Loudest Voice S01E07


The Loudest Voice S01E07


The Loudest Voice S01E07


The Loudest Voice S01E07


The Loudest Voice S01E07

All episodes