Featured TV Shows


The Loudest Voice S01E07

Posted By: Tavaz
720p (HD) / WEBRip IMDb
The Loudest Voice S01E07

The Loudest Voice S01E07
WEBRip | MKV | 1280x720 | French / English | H264 @ 3236 kbps | AAC @ 128 kbps | 49 min 28 s | 1.21 GiB
Subtitles: French
Genre: Drama


The rise and fall of Fox News founder Roger Ailes, focusing primarily on the past decade in which Ailes arguably became the Republican Party’s de facto leader, while flashing back to defining events in his life.

d8bcb895020e43c687c91079bcd6f85d.mkv (1.2 GB)



General
Unique ID : 12534514089856206694623969074966382035 (0x96E0F421A55D02FBCC0C481C60B45D3)
Complete name : ./d8bcb895020e43c687c91079bcd6f85d.mkv
Format : Matroska
Format version : Version 4 / Version 2
File size : 1.21 GiB
Duration : 49 min 28 s
Overall bit rate : 3 496 kb/s
Encoded date : UTC 2020-01-08 16:28:58
Writing application : mkvmerge v42.0.0 ('Overtime') 64-bit
Writing library : libebml v1.3.10 + libmatroska v1.5.2

Video
ID : 1
Format : AVC
Format/Info : Advanced Video Codec
Format profile : High@L3.1
Format settings : CABAC / 2 Ref Frames
Format settings, CABAC : Yes
Format settings, RefFrames : 2 frames
Format settings, GOP : M=1, N=50
Codec ID : V_MPEG4/ISO/AVC
Duration : 49 min 28 s
Bit rate mode : Constant
Bit rate : 3 237 kb/s
Nominal bit rate : 3 400 kb/s
Width : 1 280 pixels
Height : 720 pixels
Display aspect ratio : 16:9
Frame rate mode : Constant
Frame rate : 25.000 FPS
Color space : YUV
Chroma subsampling : 4:2:0
Bit depth : 8 bits
Scan type : Progressive
Bits/(Pixel*Frame) : 0.140
Stream size : 1.12 GiB (93%)
Default : Yes
Forced : No
Color range : Limited
Color primaries : BT.709
Transfer characteristics : BT.709
Matrix coefficients : BT.709

Audio #1
ID : 2
Format : AAC
Format/Info : Advanced Audio Codec
Format profile : LC
Codec ID : A_AAC-2
Duration : 49 min 28 s
Bit rate : 128 kb/s
Channel(s) : 2 channels
Channel positions : Front: L R
Sampling rate : 48.0 kHz
Frame rate : 46.875 FPS (1024 SPF)
Compression mode : Lossy
Stream size : 45.3 MiB (4%)
Title : French
Language : French
Default : Yes
Forced : No

Audio #2
ID : 3
Format : AAC
Format/Info : Advanced Audio Codec
Format profile : LC
Codec ID : A_AAC-2
Duration : 49 min 28 s
Bit rate : 128 kb/s
Channel(s) : 2 channels
Channel positions : Front: L R
Sampling rate : 48.0 kHz
Frame rate : 46.875 FPS (1024 SPF)
Compression mode : Lossy
Stream size : 45.3 MiB (4%)
Title : English
Language : English
Default : No
Forced : No

Text
ID : 4
Format : UTF-8
Codec ID : S_TEXT/UTF8
Codec ID/Info : UTF-8 Plain Text
Duration : 46 min 52 s
Bit rate : 62 b/s
Count of elements : 723
Stream size : 21.4 KiB (0%)
Title : French
Language : French
Default : No
Forced : No





The Loudest Voice S01E07


The Loudest Voice S01E07


The Loudest Voice S01E07


The Loudest Voice S01E07


The Loudest Voice S01E07

All episodes