Featured TV Shows


The Middle S08E01

Posted By: Tavaz
1080p (FullHD) / WEB-DL IMDb
The Middle S08E01

The Middle S08E01
WEB-DL | MKV | 1912x1076 | English | H264 @ 5137 kbps | AC-3 @ 384 kbps | 21 min 33 s | 869 MiB
Subtitles: English
Genre: Comedy

The daily mishaps of a married woman and her semi-dysfunctional family and their attempts to survive life in general in the city of Orson, Indiana.

793b9540295b4f77bf2808672d547620.mkv (868.7 MB)



General
Unique ID : 231569961854059091637713891173888069202 (0xAE36C09BAED9DA07A6E5A59175968E52)
Complete name : ./793b9540295b4f77bf2808672d547620.mkv
Format : Matroska
Format version : Version 4 / Version 2
File size : 869 MiB
Duration : 21 min 33 s
Overall bit rate : 5 633 kb/s
Encoded date : UTC 2016-10-13 09:13:09
Writing application : mkvmerge v9.4.2 ('So High') 64bit
Writing library : libebml v1.3.4 + libmatroska v1.4.5
Encoded/Released by : h@BTN/HDB
Group : NTb

Video
ID : 1
Format : AVC
Format/Info : Advanced Video Codec
Format profile : High@L4
Format settings : CABAC / 4 Ref Frames
Format settings, CABAC : Yes
Format settings, RefFrames : 4 frames
Codec ID : V_MPEG4/ISO/AVC
Duration : 21 min 33 s
Bit rate : 5 137 kb/s
Width : 1 912 pixels
Height : 1 076 pixels
Display aspect ratio : 16:9
Frame rate mode : Constant
Frame rate : 23.976 FPS
Color space : YUV
Chroma subsampling : 4:2:0
Bit depth : 8 bits
Scan type : Progressive
Bits/(Pixel*Frame) : 0.104
Stream size : 792 MiB (91%)
Language : English
Default : Yes
Forced : No
Color range : Limited
Color primaries : BT.709
Transfer characteristics : BT.709
Matrix coefficients : BT.709

Audio
ID : 2
Format : AC-3
Format/Info : Audio Coding 3
Format settings, Endianness : Big
Codec ID : A_AC3
Duration : 21 min 33 s
Bit rate mode : Constant
Bit rate : 384 kb/s
Channel(s) : 6 channels
Channel positions : Front: L C R, Side: L R, LFE
Sampling rate : 48.0 kHz
Frame rate : 31.250 FPS (1536 SPF)
Bit depth : 16 bits
Compression mode : Lossy
Stream size : 59.2 MiB (7%)
Language : English
Service kind : Complete Main
Default : Yes
Forced : No

Text
ID : 3
Format : UTF-8
Codec ID : S_TEXT/UTF8
Codec ID/Info : UTF-8 Plain Text
Language : English
Default : No
Forced : No





The Middle S08E01


The Middle S08E01


The Middle S08E01


The Middle S08E01


The Middle S08E01

All episodes