Featured TV Shows


The Middle S08E03

Posted By: Tavaz
1080p (FullHD) / WEB-DL IMDb
The Middle S08E03

The Middle S08E03
WEB-DL | MKV | 1914x1076 | English | H264 @ 5120 kbps | AC-3 @ 384 kbps | 21 min 33 s | 866 MiB
Subtitles: English
Genre: Comedy

The daily mishaps of a married woman and her semi-dysfunctional family and their attempts to survive life in general in the city of Orson, Indiana.

def30b85b15f460699c4ba6c799ff450.mkv (865.9 MB)



General
Unique ID : 217528801765125294871186505097992421480 (0xA3A685F78DA27818A38D110D589F4068)
Complete name : ./def30b85b15f460699c4ba6c799ff450.mkv
Format : Matroska
Format version : Version 4 / Version 2
File size : 866 MiB
Duration : 21 min 33 s
Overall bit rate : 5 616 kb/s
Encoded date : UTC 2016-10-26 17:55:47
Writing application : mkvmerge v9.5.0 ('Quiet Fire') 64bit
Writing library : libebml v1.3.4 + libmatroska v1.4.5
Encoded/Released by : h@BTN/HDB
Group : NTb

Video
ID : 1
Format : AVC
Format/Info : Advanced Video Codec
Format profile : High@L4
Format settings : CABAC / 4 Ref Frames
Format settings, CABAC : Yes
Format settings, RefFrames : 4 frames
Codec ID : V_MPEG4/ISO/AVC
Duration : 21 min 33 s
Bit rate : 5 121 kb/s
Width : 1 914 pixels
Height : 1 076 pixels
Display aspect ratio : 16:9
Frame rate mode : Constant
Frame rate : 23.976 FPS
Color space : YUV
Chroma subsampling : 4:2:0
Bit depth : 8 bits
Scan type : Progressive
Bits/(Pixel*Frame) : 0.104
Stream size : 789 MiB (91%)
Language : English
Default : Yes
Forced : No
Color range : Limited
Color primaries : BT.709
Transfer characteristics : BT.709
Matrix coefficients : BT.709

Audio
ID : 2
Format : AC-3
Format/Info : Audio Coding 3
Format settings, Endianness : Big
Codec ID : A_AC3
Duration : 21 min 33 s
Bit rate mode : Constant
Bit rate : 384 kb/s
Channel(s) : 6 channels
Channel positions : Front: L C R, Side: L R, LFE
Sampling rate : 48.0 kHz
Frame rate : 31.250 FPS (1536 SPF)
Bit depth : 16 bits
Compression mode : Lossy
Stream size : 59.2 MiB (7%)
Language : English
Service kind : Complete Main
Default : Yes
Forced : No

Text
ID : 3
Format : UTF-8
Codec ID : S_TEXT/UTF8
Codec ID/Info : UTF-8 Plain Text
Language : English
Default : No
Forced : No





The Middle S08E03


The Middle S08E03


The Middle S08E03


The Middle S08E03


The Middle S08E03

All episodes