Featured TV Shows


The Middle S08E13

Posted By: Tavaz
1080p (FullHD) / WEB-DL IMDb
The Middle S08E13

The Middle S08E13
WEB-DL | MKV | 1912x1072 | English | H264 @ 5157 kbps | AC-3 @ 384 kbps | 21 min 30 s | 870 MiB
Subtitles: English
Genre: Comedy

The daily mishaps of a married woman and her semi-dysfunctional family and their attempts to survive life in general in the city of Orson, Indiana.

5a96b888fb5140f48416951c324a9026.mkv (869.7 MB)



General
Unique ID : 202097173853219864575003971651727253352 (0x980A7FF822A622CA980B587792FBDF68)
Complete name : ./5a96b888fb5140f48416951c324a9026.mkv
Format : Matroska
Format version : Version 4 / Version 2
File size : 870 MiB
Duration : 21 min 30 s
Overall bit rate : 5 654 kb/s
Encoded date : UTC 2017-02-09 11:28:10
Writing application : mkvmerge v9.8.0 ('Kuglblids') 64bit
Writing library : libebml v1.3.4 + libmatroska v1.4.5
Encoded/Released by : h@BTN/HDB
Group : NTb

Video
ID : 1
Format : AVC
Format/Info : Advanced Video Codec
Format profile : High@L4
Format settings : CABAC / 4 Ref Frames
Format settings, CABAC : Yes
Format settings, RefFrames : 4 frames
Codec ID : V_MPEG4/ISO/AVC
Duration : 21 min 30 s
Bit rate : 5 158 kb/s
Width : 1 912 pixels
Height : 1 072 pixels
Display aspect ratio : 16:9
Frame rate mode : Constant
Frame rate : 23.976 (24000/1001) FPS
Color space : YUV
Chroma subsampling : 4:2:0
Bit depth : 8 bits
Scan type : Progressive
Bits/(Pixel*Frame) : 0.105
Stream size : 793 MiB (91%)
Language : English
Default : Yes
Forced : No
Color range : Limited
Color primaries : BT.709
Transfer characteristics : BT.709
Matrix coefficients : BT.709

Audio
ID : 2
Format : AC-3
Format/Info : Audio Coding 3
Format settings, Endianness : Big
Codec ID : A_AC3
Duration : 21 min 30 s
Bit rate mode : Constant
Bit rate : 384 kb/s
Channel(s) : 6 channels
Channel positions : Front: L C R, Side: L R, LFE
Sampling rate : 48.0 kHz
Frame rate : 31.250 FPS (1536 SPF)
Bit depth : 16 bits
Compression mode : Lossy
Stream size : 59.1 MiB (7%)
Language : English
Service kind : Complete Main
Default : Yes
Forced : No

Text
ID : 3
Format : UTF-8
Codec ID : S_TEXT/UTF8
Codec ID/Info : UTF-8 Plain Text
Language : English
Default : No
Forced : No





The Middle S08E13


The Middle S08E13


The Middle S08E13


The Middle S08E13


The Middle S08E13

All episodes