Featured TV Shows


The Middle S08E16

Posted By: Tavaz
1080p (FullHD) / WEB-DL IMDb
The Middle S08E16

The Middle S08E16
WEB-DL | MKV | 1912x1072 | English | H264 @ 5240 kbps | AC-3 @ 384 kbps | 21 min 31 s | 866 MiB
Subtitles: English
Genre: Comedy

The daily mishaps of a married woman and her semi-dysfunctional family and their attempts to survive life in general in the city of Orson, Indiana.

924905851eb34c73907f760c25e60998.mkv (866.4 MB)



General
Unique ID : 178958134024724563754367728752099388735 (0x86A21539A78E7D10BF411D903CFCED3F)
Complete name : ./924905851eb34c73907f760c25e60998.mkv
Format : Matroska
Format version : Version 4 / Version 2
File size : 866 MiB
Duration : 21 min 31 s
Overall bit rate : 5 627 kb/s
Encoded date : UTC 2017-03-09 11:22:41
Writing application : mkvmerge v9.9.0 ('Pick Up') 64bit
Writing library : libebml v1.3.4 + libmatroska v1.4.5
Encoded/Released by : h@BTN/HDB
Group : NTb

Video
ID : 1
Format : AVC
Format/Info : Advanced Video Codec
Format profile : High@L4
Format settings : CABAC / 4 Ref Frames
Format settings, CABAC : Yes
Format settings, RefFrames : 4 frames
Codec ID : V_MPEG4/ISO/AVC
Duration : 21 min 31 s
Bit rate : 5 241 kb/s
Width : 1 912 pixels
Height : 1 072 pixels
Display aspect ratio : 16:9
Frame rate mode : Constant
Frame rate : 23.976 (24000/1001) FPS
Color space : YUV
Chroma subsampling : 4:2:0
Bit depth : 8 bits
Scan type : Progressive
Bits/(Pixel*Frame) : 0.107
Stream size : 807 MiB (93%)
Language : English
Default : Yes
Forced : No
Color range : Limited
Color primaries : BT.709
Transfer characteristics : BT.709
Matrix coefficients : BT.709

Audio
ID : 2
Format : AC-3
Format/Info : Audio Coding 3
Format settings, Endianness : Big
Codec ID : A_AC3
Duration : 21 min 31 s
Bit rate mode : Constant
Bit rate : 384 kb/s
Channel(s) : 6 channels
Channel positions : Front: L C R, Side: L R, LFE
Sampling rate : 48.0 kHz
Frame rate : 31.250 FPS (1536 SPF)
Bit depth : 16 bits
Compression mode : Lossy
Stream size : 59.1 MiB (7%)
Language : English
Service kind : Complete Main
Default : Yes
Forced : No

Text
ID : 3
Format : UTF-8
Codec ID : S_TEXT/UTF8
Codec ID/Info : UTF-8 Plain Text
Duration : 21 min 13 s
Bit rate : 122 b/s
Count of elements : 583
Stream size : 19.0 KiB (0%)
Language : English
Default : No
Forced : No





The Middle S08E16


The Middle S08E16


The Middle S08E16


The Middle S08E16


The Middle S08E16

All episodes