Featured TV Shows


The Middle S08E21

Posted By: Tavaz
1080p (FullHD) / WEBRip IMDb
The Middle S08E21

The Middle S08E21
WEB-DL | MKV | 1908x1072 | English | H264 @ 5241 kbps | AC-3 @ 384 kbps | 21 min 33 s | 868 MiB
Subtitles: English
Genre: Comedy

The daily mishaps of a married woman and her semi-dysfunctional family and their attempts to survive life in general in the city of Orson, Indiana.

ae3c79f754a04ed4bcc88da37284da60.mkv (867.6 MB)



General
Unique ID : 226984539103034283817447497154975171006 (0xAAC3A1CFCED28FD48CD418366B4F01BE)
Complete name : ./ae3c79f754a04ed4bcc88da37284da60.mkv
Format : Matroska
Format version : Version 4 / Version 2
File size : 868 MiB
Duration : 21 min 33 s
Overall bit rate : 5 627 kb/s
Encoded date : UTC 2017-05-04 05:27:41
Writing application : mkvmerge v11.0.0 ('Alive') 64bit
Writing library : libebml v1.3.4 + libmatroska v1.4.5
Encoded/Released by : h@BTN/HDB
Group : NTb

Video
ID : 1
Format : AVC
Format/Info : Advanced Video Codec
Format profile : High@L4
Format settings : CABAC / 4 Ref Frames
Format settings, CABAC : Yes
Format settings, RefFrames : 4 frames
Codec ID : V_MPEG4/ISO/AVC
Duration : 21 min 33 s
Bit rate : 5 241 kb/s
Width : 1 908 pixels
Height : 1 072 pixels
Display aspect ratio : 16:9
Frame rate mode : Constant
Frame rate : 23.976 (24000/1001) FPS
Color space : YUV
Chroma subsampling : 4:2:0
Bit depth : 8 bits
Scan type : Progressive
Bits/(Pixel*Frame) : 0.107
Stream size : 808 MiB (93%)
Language : English
Default : Yes
Forced : No
Color range : Limited
Color primaries : BT.709
Transfer characteristics : BT.709
Matrix coefficients : BT.709

Audio
ID : 2
Format : AC-3
Format/Info : Audio Coding 3
Format settings, Endianness : Big
Codec ID : A_AC3
Duration : 21 min 33 s
Bit rate mode : Constant
Bit rate : 384 kb/s
Channel(s) : 6 channels
Channel positions : Front: L C R, Side: L R, LFE
Sampling rate : 48.0 kHz
Frame rate : 31.250 FPS (1536 SPF)
Bit depth : 16 bits
Compression mode : Lossy
Delay relative to video : -42 ms
Stream size : 59.2 MiB (7%)
Language : English
Service kind : Complete Main
Default : Yes
Forced : No

Text
ID : 3
Format : UTF-8
Codec ID : S_TEXT/UTF8
Codec ID/Info : UTF-8 Plain Text
Duration : 21 min 23 s
Bit rate : 118 b/s
Count of elements : 624
Stream size : 18.5 KiB (0%)
Language : English
Default : No
Forced : No





The Middle S08E21


The Middle S08E21


The Middle S08E21


The Middle S08E21


The Middle S08E21

All episodes