Featured TV Shows


The Middle S09E03

Posted By: Tavaz
1080p (FullHD) / WEB-DL IMDb
The Middle S09E03

The Middle S09E03
WEB-DL | MKV | 1920x1080 | English | H264 @ 14800 kbps | E-AC-3 @ 640 kbps | 21 min 34 s | 2.33 GiB
Subtitles: English
Genre: Comedy

The daily mishaps of a married woman and her semi-dysfunctional family and their attempts to survive life in general in the city of Orson, Indiana.

289896c14df5406c9486aa24cfb932d6.mkv (2.3 GB)



General
Unique ID : 183386786257198481324385170806718382828 (0x89F702A3661898E1A98ED2A1EB7CC2EC)
Complete name : ./289896c14df5406c9486aa24cfb932d6.mkv
Format : Matroska
Format version : Version 4 / Version 2
File size : 2.33 GiB
Duration : 21 min 34 s
Overall bit rate mode : Variable
Overall bit rate : 15.4 Mb/s
Encoded date : UTC 2017-10-18 17:13:29
Writing application : mkvmerge v17.0.0 ('Be Ur Friend') 64-bit
Writing library : libebml v1.3.5 + libmatroska v1.4.8

Video
ID : 1
Format : AVC
Format/Info : Advanced Video Codec
Format profile : High@L4
Format settings : CABAC / 4 Ref Frames
Format settings, CABAC : Yes
Format settings, RefFrames : 4 frames
Codec ID : V_MPEG4/ISO/AVC
Duration : 21 min 34 s
Bit rate mode : Variable
Bit rate : 14.8 Mb/s
Maximum bit rate : 15.0 Mb/s
Width : 1 920 pixels
Height : 1 080 pixels
Display aspect ratio : 16:9
Frame rate mode : Constant
Frame rate : 23.976 (24000/1001) FPS
Color space : YUV
Chroma subsampling : 4:2:0
Bit depth : 8 bits
Scan type : Progressive
Bits/(Pixel*Frame) : 0.298
Stream size : 2.23 GiB (96%)
Language : English
Default : Yes
Forced : No
Color range : Limited
Color primaries : BT.709
Transfer characteristics : BT.709
Matrix coefficients : BT.709

Audio
ID : 2
Format : E-AC-3
Format/Info : Enhanced Audio Coding 3
Format settings, Endianness : Big
Codec ID : A_EAC3
Duration : 21 min 34 s
Bit rate mode : Constant
Bit rate : 640 kb/s
Channel(s) : 6 channels
Channel positions : Front: L C R, Side: L R, LFE
Sampling rate : 48.0 kHz
Frame rate : 187.500 FPS (256 SPF)
Compression mode : Lossy
Stream size : 98.7 MiB (4%)
Language : English
Service kind : Complete Main
Default : Yes
Forced : No

Text
ID : 3
Format : UTF-8
Codec ID : S_TEXT/UTF8
Codec ID/Info : UTF-8 Plain Text
Duration : 21 min 20 s
Bit rate : 123 b/s
Count of elements : 599
Stream size : 19.2 KiB (0%)
Language : English
Default : No
Forced : No





The Middle S09E03


The Middle S09E03


The Middle S09E03


The Middle S09E03


The Middle S09E03

All episodes