Featured TV Shows


The Middle S09E05

Posted By: Tavaz
720p (HD) / WEB-DL IMDb
The Middle S09E05

The Middle S09E05
WEB-DL | MKV | 1280x720 | English | H264 @ 4421 kbps | E-AC-3 @ 640 kbps | 21 min 19 s | 772 MiB
Subtitles: English
Genre: Comedy

The daily mishaps of a married woman and her semi-dysfunctional family and their attempts to survive life in general in the city of Orson, Indiana.

76e96daa90484dc78fe5fbae2b03fb5d.mkv (772.1 MB)



General
Unique ID : 210889334306075685949452794127187371916 (0x9EA7CEF29827EB5FA9CF43314636E78C)
Complete name : ./76e96daa90484dc78fe5fbae2b03fb5d.mkv
Format : Matroska
Format version : Version 4 / Version 2
File size : 772 MiB
Duration : 21 min 19 s
Overall bit rate mode : Variable
Overall bit rate : 5 064 kb/s
Encoded date : UTC 2017-11-01 08:05:55
Writing application : mkvmerge v17.0.0 ('Be Ur Friend') 64-bit
Writing library : libebml v1.3.5 + libmatroska v1.4.8

Video
ID : 1
Format : AVC
Format/Info : Advanced Video Codec
Format profile : High@L3.1
Format settings : CABAC / 5 Ref Frames
Format settings, CABAC : Yes
Format settings, RefFrames : 5 frames
Codec ID : V_MPEG4/ISO/AVC
Duration : 21 min 19 s
Bit rate mode : Variable
Bit rate : 4 421 kb/s
Maximum bit rate : 4 500 kb/s
Width : 1 280 pixels
Height : 720 pixels
Display aspect ratio : 16:9
Frame rate mode : Constant
Frame rate : 23.976 (24000/1001) FPS
Color space : YUV
Chroma subsampling : 4:2:0
Bit depth : 8 bits
Scan type : Progressive
Bits/(Pixel*Frame) : 0.200
Stream size : 674 MiB (87%)
Language : English
Default : Yes
Forced : No
Color range : Limited
Color primaries : BT.709
Transfer characteristics : BT.709
Matrix coefficients : BT.709

Audio
ID : 2
Format : E-AC-3
Format/Info : Enhanced Audio Coding 3
Format settings, Endianness : Big
Codec ID : A_EAC3
Duration : 21 min 19 s
Bit rate mode : Constant
Bit rate : 640 kb/s
Channel(s) : 6 channels
Channel positions : Front: L C R, Side: L R, LFE
Sampling rate : 48.0 kHz
Frame rate : 187.500 FPS (256 SPF)
Compression mode : Lossy
Stream size : 97.6 MiB (13%)
Language : English
Service kind : Complete Main
Default : Yes
Forced : No

Text
ID : 3
Format : UTF-8
Codec ID : S_TEXT/UTF8
Codec ID/Info : UTF-8 Plain Text
Duration : 21 min 7 s
Bit rate : 138 b/s
Count of elements : 695
Stream size : 21.4 KiB (0%)
Language : English
Default : No
Forced : No





The Middle S09E05


The Middle S09E05


The Middle S09E05


The Middle S09E05


The Middle S09E05

All episodes