Featured TV Shows


The Middle S09E06

Posted By: Tavaz
1080p (FullHD) / WEB-DL IMDb
The Middle S09E06

The Middle S09E06
WEB-DL | MKV | 1920x1080 | English | H264 @ 14824 kbps | E-AC-3 @ 640 kbps | 21 min 34 s | 2.33 GiB
Subtitles: English
Genre: Comedy

The daily mishaps of a married woman and her semi-dysfunctional family and their attempts to survive life in general in the city of Orson, Indiana.

97b882af6afb40548bd7da15943730d7.mkv (2.3 GB)



General
Unique ID : 192984569812428984906647584232021860845 (0x912F79E6F9878A76865E9D5CFAB6A1ED)
Complete name : ./97b882af6afb40548bd7da15943730d7.mkv
Format : Matroska
Format version : Version 4 / Version 2
File size : 2.33 GiB
Duration : 21 min 34 s
Overall bit rate mode : Variable
Overall bit rate : 15.5 Mb/s
Encoded date : UTC 2017-11-08 10:26:50
Writing application : mkvmerge v17.0.0 ('Be Ur Friend') 64-bit
Writing library : libebml v1.3.5 + libmatroska v1.4.8

Video
ID : 1
Format : AVC
Format/Info : Advanced Video Codec
Format profile : High@L4
Format settings : CABAC / 4 Ref Frames
Format settings, CABAC : Yes
Format settings, RefFrames : 4 frames
Codec ID : V_MPEG4/ISO/AVC
Duration : 21 min 34 s
Bit rate mode : Variable
Bit rate : 14.8 Mb/s
Maximum bit rate : 15.0 Mb/s
Width : 1 920 pixels
Height : 1 080 pixels
Display aspect ratio : 16:9
Frame rate mode : Constant
Frame rate : 23.976 (24000/1001) FPS
Color space : YUV
Chroma subsampling : 4:2:0
Bit depth : 8 bits
Scan type : Progressive
Bits/(Pixel*Frame) : 0.298
Stream size : 2.23 GiB (96%)
Language : English
Default : Yes
Forced : No
Color range : Limited
Color primaries : BT.709
Transfer characteristics : BT.709
Matrix coefficients : BT.709

Audio
ID : 2
Format : E-AC-3
Format/Info : Enhanced Audio Coding 3
Format settings, Endianness : Big
Codec ID : A_EAC3
Duration : 21 min 34 s
Bit rate mode : Constant
Bit rate : 640 kb/s
Channel(s) : 6 channels
Channel positions : Front: L C R, Side: L R, LFE
Sampling rate : 48.0 kHz
Frame rate : 187.500 FPS (256 SPF)
Compression mode : Lossy
Stream size : 98.7 MiB (4%)
Language : English
Service kind : Complete Main
Default : Yes
Forced : No

Text
ID : 3
Format : UTF-8
Codec ID : S_TEXT/UTF8
Codec ID/Info : UTF-8 Plain Text
Duration : 21 min 21 s
Bit rate : 124 b/s
Count of elements : 682
Stream size : 19.5 KiB (0%)
Language : English
Default : No
Forced : No





The Middle S09E06


The Middle S09E06


The Middle S09E06


The Middle S09E06


The Middle S09E06

All episodes