Featured TV Shows


The Middle S09E08

Posted By: Tavaz
720p (HD) / WEB-DL IMDb
The Middle S09E08

The Middle S09E08
WEB-DL | MKV | 1280x720 | English | H264 @ 4276 kbps | E-AC-3 @ 640 kbps | 21 min 34 s | 759 MiB
Subtitles: English
Genre: Comedy

The daily mishaps of a married woman and her semi-dysfunctional family and their attempts to survive life in general in the city of Orson, Indiana.

0262e3240ab740d9a1478aaf4903d5be.mkv (759.1 MB)



General
Unique ID : 176725947772721974169787405083685038994 (0x84F42DF22D2E8A1BBDEB58F9CA262B92)
Complete name : ./0262e3240ab740d9a1478aaf4903d5be.mkv
Format : Matroska
Format version : Version 4 / Version 2
File size : 759 MiB
Duration : 21 min 34 s
Overall bit rate mode : Variable
Overall bit rate : 4 918 kb/s
Encoded date : UTC 2017-11-22 09:28:41
Writing application : mkvmerge v18.0.0 ('Apricity') 64-bit
Writing library : libebml v1.3.5 + libmatroska v1.4.8

Video
ID : 1
Format : AVC
Format/Info : Advanced Video Codec
Format profile : High@L3.1
Format settings : CABAC / 5 Ref Frames
Format settings, CABAC : Yes
Format settings, RefFrames : 5 frames
Codec ID : V_MPEG4/ISO/AVC
Duration : 21 min 34 s
Bit rate mode : Variable
Bit rate : 4 276 kb/s
Maximum bit rate : 4 500 kb/s
Width : 1 280 pixels
Height : 720 pixels
Display aspect ratio : 16:9
Frame rate mode : Constant
Frame rate : 23.976 (24000/1001) FPS
Color space : YUV
Chroma subsampling : 4:2:0
Bit depth : 8 bits
Scan type : Progressive
Bits/(Pixel*Frame) : 0.194
Stream size : 660 MiB (87%)
Language : English
Default : Yes
Forced : No
Color range : Limited
Color primaries : BT.709
Transfer characteristics : BT.709
Matrix coefficients : BT.709

Audio
ID : 2
Format : E-AC-3
Format/Info : Enhanced Audio Coding 3
Format settings, Endianness : Big
Codec ID : A_EAC3
Duration : 21 min 34 s
Bit rate mode : Constant
Bit rate : 640 kb/s
Channel(s) : 6 channels
Channel positions : Front: L C R, Side: L R, LFE
Sampling rate : 48.0 kHz
Frame rate : 187.500 FPS (256 SPF)
Compression mode : Lossy
Stream size : 98.8 MiB (13%)
Language : English
Service kind : Complete Main
Default : Yes
Forced : No

Text
ID : 3
Format : UTF-8
Codec ID : S_TEXT/UTF8
Codec ID/Info : UTF-8 Plain Text
Duration : 21 min 20 s
Bit rate : 119 b/s
Count of elements : 570
Stream size : 18.7 KiB (0%)
Language : English
Default : No
Forced : No





The Middle S09E08


The Middle S09E08


The Middle S09E08


The Middle S09E08


The Middle S09E08

All episodes